<?xml version="1.0" standalone="no"?>
<!DOCTYPE svg PUBLIC "-//W3C//DTD SVG 1.1//EN" "http://www.w3.org/Graphics/SVG/1.1/DTD/svg11.dtd" >
<svg>
<metadata>
Created by FontForge 20090622 at Tue Nov 19 08:04:56 2019
 By deploy user
Copyright (c) 1990 Adobe Systems Incorporated.  All Rights Reserved.Rotis is a trademark of Agfa Corporation.
</metadata>
<defs>
<font id="RotisSemiSans-ExtraBold" horiz-adv-x="519" >
  <font-face 
    font-family="RotisSemiSans ExtraBold"
    font-weight="800"
    font-stretch="normal"
    units-per-em="1000"
    panose-1="0 0 4 0 0 0 0 0 0 0"
    ascent="800"
    descent="-200"
    x-height="476"
    cap-height="690"
    bbox="-73 -257 1249 974"
    underline-thickness="50"
    underline-position="-75"
    unicode-range="U+0020-U+F002"
  />
<missing-glyph horiz-adv-x="500" 
d="M63 0v765h375v-765h-375zM125 63h250v640h-250v-640z" />
    <glyph glyph-name=".notdef" horiz-adv-x="500" 
d="M63 0v765h375v-765h-375zM125 63h250v640h-250v-640z" />
    <glyph glyph-name=".null" horiz-adv-x="0" 
 />
    <glyph glyph-name="nonmarkingreturn" horiz-adv-x="297" 
 />
    <glyph glyph-name="space" unicode=" " horiz-adv-x="297" 
 />
    <glyph glyph-name="exclam" unicode="!" horiz-adv-x="315" 
d="M150 205l-24 485h137l-24 -485h-89zM126 0v138h137v-138h-137z" />
    <glyph glyph-name="quotedbl" unicode="&#x22;" horiz-adv-x="426" 
d="M75 453l-22 237h135l-22 -237h-91zM261 453l-22 237h135l-22 -237h-91z" />
    <glyph glyph-name="numbersign" unicode="#" horiz-adv-x="593" 
d="M82 0l49 189h-69l20 79h69l25 96h-69l20 79h69l49 191h92l-49 -191h78l50 191h92l-49 -191h71l-21 -79h-71l-24 -96h71l-21 -79h-71l-48 -189h-92l48 189h-78l-49 -189h-92zM268 364l-25 -96h79l24 96h-78z" />
    <glyph glyph-name="dollar" unicode="$" horiz-adv-x="575" 
d="M258 -102v91q-191 6 -206 155h131q0 -81 75 -94v266q-82 23 -122 50q-74 49 -74 133q0 157 196 171v79h61v-79q176 -19 193 -159h-131q-3 41 -10 57q-14 30 -52 41v-243l89 -31q54 -24 82 -58q37 -45 37 -114q0 -163 -208 -174v-91h-61zM258 389v220q-63 -18 -63 -102
q0 -53 22 -83q12 -17 41 -35zM319 292v-242q75 18 75 106q0 93 -75 136z" />
    <glyph glyph-name="percent" unicode="%" horiz-adv-x="889" 
d="M194 199q-165 0 -165 223t165 223q166 0 166 -223t-166 -223zM120 422q0 -180 74 -180q75 0 75 180t-75 180q-74 0 -74 -180zM694 -11q-165 0 -165 223q0 224 165 224q166 0 166 -224q0 -223 -166 -223zM620 212q0 -180 74 -180q75 0 75 180q0 181 -75 181
q-74 0 -74 -181zM290 0l232 634h76l-232 -634h-76z" />
    <glyph glyph-name="ampersand" unicode="&#x26;" horiz-adv-x="705" 
d="M393 71v-67q-60 -15 -122 -15q-224 0 -224 188q0 87 47 128q34 31 103 41v2q-62 14 -93 40q-47 38 -47 114q0 82 54 125t150 43q59 0 123 -17v-73q-54 31 -108 31q-88 0 -88 -105q0 -80 40 -108q31 -21 108 -21h118v214l121 73v-287h134v-58h-134v-182q0 -45 15.5 -65
t56.5 -20q25 0 56 14v-68q-58 -9 -97 -9q-99 0 -131 48q-21 32 -21 117v165h-118q-84 0 -116 -23q-42 -28 -42 -110q0 -139 115 -139q40 0 100 24z" />
    <glyph glyph-name="quotesingle" unicode="'" horiz-adv-x="241" 
d="M75 453l-22 237h135l-22 -237h-91z" />
    <glyph glyph-name="parenleft" unicode="(" horiz-adv-x="334" 
d="M311 -94v-58q-162 19 -212 136q-35 84 -35 319q0 236 35 320q50 117 212 136v-58q-80 -17 -105 -143q-15 -74 -15 -255q0 -180 15 -254q25 -126 105 -143z" />
    <glyph glyph-name="parenright" unicode=")" horiz-adv-x="334" 
d="M19 -152v58q79 17 104 143q15 74 15 254q0 181 -15 255q-25 126 -104 143v58q162 -19 212 -136q34 -83 34 -320q0 -236 -34 -319q-50 -117 -212 -136z" />
    <glyph glyph-name="asterisk" unicode="*" horiz-adv-x="315" 
d="M111 403l-61 35l35 61l26 26l-2 2l-34 -10h-69v69h69l34 -10l2 2l-26 25l-35 63l61 35l36 -63l10 -35h2l8 35l36 63l60 -35l-35 -63l-25 -25l2 -2l35 10h69v-69h-69l-35 10l-2 -2l25 -26l35 -61l-60 -35l-36 60l-8 36h-2l-10 -36z" />
    <glyph glyph-name="plus" unicode="+" horiz-adv-x="593" 
d="M248 0v209h-189v91h189v187h98v-187h189v-91h-189v-209h-98z" />
    <glyph glyph-name="comma" unicode="," horiz-adv-x="241" 
d="M49 -99l9 237h135l-52 -237h-92z" />
    <glyph glyph-name="hyphen" unicode="-" horiz-adv-x="463" 
d="M46 204v107h372v-107h-372z" />
    <glyph glyph-name="hyphen" unicode="&#x2010;" horiz-adv-x="463" 
d="M46 204v107h372v-107h-372z" />
    <glyph glyph-name="period" unicode="." horiz-adv-x="241" 
d="M51 0v138h138v-138h-138z" />
    <glyph glyph-name="slash" unicode="/" horiz-adv-x="315" 
d="M-10 -136l229 897h106l-229 -897h-106z" />
    <glyph glyph-name="zero" unicode="0" horiz-adv-x="556" 
d="M278 -11q-125 0 -187 92q-56 84 -56 236t56 236q62 92 187 92q242 0 242 -328q0 -152 -56 -236q-61 -92 -186 -92zM168 317q0 -128 21 -189q26 -76 89 -76q62 0 88 76q21 61 21 189t-21 190q-26 75 -88 75q-63 0 -89 -75q-21 -61 -21 -190z" />
    <glyph glyph-name="one" unicode="1" horiz-adv-x="556" 
d="M232 0v546l-117 -71v84l142 86h101v-645h-126z" />
    <glyph glyph-name="two" unicode="2" horiz-adv-x="556" 
d="M48 0v89q82 63 168 162q126 148 126 246q0 35 -23 60t-59 25q-40 0 -60 -36q-15 -27 -15 -62h-137q2 65 53 110q59 51 161 51q88 0 146 -40q67 -47 67 -134q0 -115 -123 -239q-39 -39 -173 -141v-2h297v-89h-428z" />
    <glyph glyph-name="three" unicode="3" horiz-adv-x="556" 
d="M190 496h-137q7 65 57 105q56 44 155 44q201 0 201 -165q0 -111 -107 -144v-2q120 -26 120 -159q0 -186 -222 -186q-101 0 -159.5 42t-58.5 111h137q0 -41 13 -61q19 -29 71 -29q86 0 86 114q0 87 -32 114q-24 20 -92 21v66q57 0 78 14q33 23 33 95q0 106 -77 106
q-66 0 -66 -86z" />
    <glyph glyph-name="four" unicode="4" horiz-adv-x="556" 
d="M317 0v157h-289v82l269 395h131v-388h108v-89h-108v-157h-111zM315 526l-176 -280h178v280h-2z" />
    <glyph glyph-name="five" unicode="5" horiz-adv-x="556" 
d="M227 555l-15 -195q44 31 105 31q96 0 150 -61q50 -56 50 -146q0 -99 -69 -150q-61 -45 -163 -45q-114 0 -172 50q-47 41 -50 105h137q0 -92 84 -92q100 0 100 139q0 137 -93 137q-56 0 -80 -54h-117l17 360h356v-79h-240z" />
    <glyph glyph-name="six" unicode="6" horiz-adv-x="556" 
d="M500 494h-137q0 88 -62 88q-68 0 -91 -96q-11 -49 -11 -154q47 51 128 51q185 0 185 -190q0 -204 -220 -204q-142 0 -192 106q-34 71 -34 232q0 158 48 232q56 86 190 86q172 0 196 -151zM199 222q0 -170 98 -170q82 0 82 135q0 56 -18 92q-24 47 -74 47q-39 0 -63.5 -30
t-24.5 -74z" />
    <glyph glyph-name="seven" unicode="7" horiz-adv-x="556" 
d="M133 0l216 555h-283v79h415v-79l-216 -555h-132z" />
    <glyph glyph-name="eight" unicode="8" horiz-adv-x="556" 
d="M278 -11q-221 0 -221 178q0 134 115 164v2q-53 14 -77 45q-29 37 -29 107q0 82 65 124q56 36 147 36q90 0 146 -36q66 -42 66 -124q0 -121 -112 -152v-2q121 -33 121 -164q0 -178 -221 -178zM199 485q0 -120 79 -120q44 0 62 31q17 28 17 89q0 97 -79 97t-79 -97z
M190 183q0 -131 88 -131t88 131q0 119 -88 119t-88 -119z" />
    <glyph glyph-name="nine" unicode="9" horiz-adv-x="556" 
d="M59 141h137q0 -89 61 -89q63 0 86 77q17 55 17 173q-47 -51 -128 -51q-185 0 -185 190q0 204 220 204q142 0 193 -106q33 -71 33 -232q0 -157 -48 -231q-56 -87 -190 -87q-174 0 -196 152zM180 448q0 -140 92 -140q40 0 64 30t24 74q0 170 -98 170q-82 0 -82 -134z" />
    <glyph glyph-name="colon" unicode=":" horiz-adv-x="297" 
d="M108 338v138h138v-138h-138zM108 0v138h138v-138h-138z" />
    <glyph glyph-name="semicolon" unicode=";" horiz-adv-x="297" 
d="M100 -99l10 237h135l-54 -237h-91zM110 338v138h138v-138h-138z" />
    <glyph glyph-name="less" unicode="&#x3c;" horiz-adv-x="593" 
d="M539 0l-485 216v54l485 216v-78l-387 -165l387 -165v-78z" />
    <glyph glyph-name="equal" unicode="=" horiz-adv-x="593" 
d="M59 122v91h476v-91h-476zM59 296v91h476v-91h-476z" />
    <glyph glyph-name="greater" unicode="&#x3e;" horiz-adv-x="593" 
d="M54 0v78l387 165l-387 165v78l485 -216v-54z" />
    <glyph glyph-name="question" unicode="?" horiz-adv-x="463" 
d="M151 205v36q0 80 31 121l91 98t45 90q0 34 -25.5 54.5t-68.5 20.5q-68 0 -149 -55v116q99 15 137 15q237 0 237 -161q0 -49 -32 -92q-22 -29 -72 -70q-57 -46 -74 -65q-29 -32 -29 -88v-20h-91zM128 0v138h138v-138h-138z" />
    <glyph glyph-name="at" unicode="@" horiz-adv-x="1000" 
d="M804 14l27 -23q-35 -37 -108 -73q-105 -51 -215 -51q-179 0 -296 92.5t-117 238.5q0 178 134.5 312t314.5 134q154 0 257.5 -91t103.5 -232q0 -132 -86.5 -226.5t-194.5 -94.5q-72 0 -72 71q-29 -29 -42 -38q-40 -27 -88 -27q-57 0 -95 37.5t-38 105.5q0 112 82 219.5
t177 107.5q77 0 116 -74l22 54h87l-84 -207q-61 -150 -61 -170q0 -27 30 -27q65 0 128 71q73 81 73 198q0 124 -94 201q-88 71 -218 71q-144 0 -263.5 -123t-119.5 -271q0 -125 95 -205.5t253 -80.5q163 0 292 101zM369 114q0 -67 69 -67q41 0 73 33q14 14 37 52
q37 61 63 144q21 68 21 97q0 25 -17 44.5t-45 19.5q-67 0 -137 -125q-64 -116 -64 -198z" />
    <glyph glyph-name="A" unicode="A" horiz-adv-x="612" 
d="M0 0l238 690h134l240 -690h-139l-60 196h-235l-62 -196h-116zM296 574l-95 -305h190l-93 305h-2z" />
    <glyph glyph-name="B" unicode="B" horiz-adv-x="575" 
d="M72 0v690h193q232 0 232 -163q0 -67 -40 -110q-32 -34 -81 -48v-2q156 -33 156 -178q0 -117 -94 -161q-60 -28 -173 -28h-193zM203 617v-212h27q64 0 95 18q41 24 41 88q0 63 -36 87q-30 19 -100 19h-27zM203 332v-249h27q81 0 118 19q53 27 53 102q0 69 -42 98.5
t-129 29.5h-27z" />
    <glyph glyph-name="C" unicode="C" horiz-adv-x="575" 
d="M541 140v-108q-111 -43 -195 -43q-153 0 -232 111q-69 98 -69 258q0 151 63 240q72 103 219 103q119 0 182 -54q60 -52 60 -145h-149q0 133 -101 133q-77 0 -111 -93q-25 -66 -25 -162q0 -308 187 -308q82 0 171 68z" />
    <glyph glyph-name="D" unicode="D" horiz-adv-x="612" 
d="M73 0v690h185q143 0 215 -61q94 -79 94 -274q0 -215 -100 -297q-69 -58 -209 -58h-185zM204 611v-528h54q103 0 140 67q31 57 31 205q0 140 -29 191q-36 65 -142 65h-54z" />
    <glyph glyph-name="E" unicode="E" 
d="M73 0v690h403v-79h-272v-212h258v-79h-258v-237h281v-83h-412z" />
    <glyph glyph-name="F" unicode="F" horiz-adv-x="482" 
d="M73 0v690h390v-79h-259v-212h245v-79h-245v-320h-131z" />
    <glyph glyph-name="G" unicode="G" horiz-adv-x="630" 
d="M576 406v-353q-107 -64 -223 -64q-155 0 -235 105q-72 95 -72 257q0 350 278 350q246 0 246 -192h-142q-4 53 -17 78q-25 48 -87 48q-91 0 -122 -102q-18 -57 -18 -171q0 -143 34 -216q43 -91 146 -91q59 0 81 28v240h-124v83h255z" />
    <glyph glyph-name="H" unicode="H" horiz-adv-x="649" 
d="M74 0v690h131v-289h240v289h131v-690h-131v322h-240v-322h-131z" />
    <glyph glyph-name="I" unicode="I" horiz-adv-x="278" 
d="M73 0v690h131v-690h-131z" />
    <glyph glyph-name="J" unicode="J" horiz-adv-x="389" 
d="M327 690v-478q0 -113 -40 -161q-51 -62 -189 -62q-43 0 -98 12v94q46 -23 104 -23q55 0 76 36q16 28 16 92v490h131z" />
    <glyph glyph-name="K" unicode="K" horiz-adv-x="593" 
d="M74 0v690h131v-300h2l222 300h138l-247 -311l273 -379h-160l-226 334h-2v-334h-131z" />
    <glyph glyph-name="L" unicode="L" horiz-adv-x="463" 
d="M74 0v690h131v-607h258v-83h-389z" />
    <glyph glyph-name="M" unicode="M" horiz-adv-x="871" 
d="M74 0v690h162l199 -563h2l194 563h166v-690h-116v591h-2l-203 -591h-100l-203 577h-2v-577h-97z" />
    <glyph glyph-name="N" unicode="N" horiz-adv-x="667" 
d="M74 0v690h143l267 -512h2v512h107v-690h-130l-280 537h-2v-537h-107z" />
    <glyph glyph-name="O" unicode="O" horiz-adv-x="667" 
d="M334 -11q-147 0 -220 99q-68 91 -68 257t68 257q73 99 220 99q146 0 220 -99q68 -91 68 -257t-68 -257q-74 -99 -220 -99zM184 345q0 -290 150 -290t150 290t-150 290t-150 -290z" />
    <glyph glyph-name="P" unicode="P" 
d="M74 0v690h164q135 0 197 -36q77 -44 77 -155q0 -199 -274 -199h-33v-300h-131zM205 617v-244h33q67 0 100 22q43 29 43 105q0 68 -37 95q-31 22 -106 22h-33z" />
    <glyph glyph-name="Q" unicode="Q" horiz-adv-x="667" 
d="M656 0h-324q-142 0 -217 96q-71 90 -71 249q0 166 68 257q74 99 220 99q147 0 220 -99q68 -91 68 -257q0 -196 -110 -280l2 -2q79 8 144 46v-109zM182 345q0 -279 150 -279t150 279q0 290 -150 290t-150 -290z" />
    <glyph glyph-name="R" unicode="R" horiz-adv-x="575" 
d="M74 0v690h157q137 0 202 -31q88 -42 88 -149q0 -123 -144 -160v-2q69 -13 98 -60q19 -28 35 -105l39 -183h-131l-25 130q-19 101 -44 133q-30 39 -103 39h-41v-302h-131zM205 617v-242h26q77 0 114 25q45 29 45 100q0 74 -49 100q-33 17 -110 17h-26z" />
    <glyph glyph-name="S" unicode="S" 
d="M440 682v-107q-94 47 -190 47q-42 0 -68 -19.5t-26 -51.5q0 -54 87 -105l163 -94q87 -67 87 -158q0 -205 -260 -205q-76 0 -187 31v122q119 -74 208 -74q41 0 71 18q37 22 37 66q0 63 -85 117l-157 96q-85 65 -85 158q0 84 61 131t172 47q73 0 172 -19z" />
    <glyph glyph-name="T" unicode="T" horiz-adv-x="463" 
d="M166 0v611h-166v79h463v-79h-166v-611h-131z" />
    <glyph glyph-name="U" unicode="U" horiz-adv-x="630" 
d="M565 690v-455q0 -114 -41 -169q-58 -77 -210 -77q-150 0 -207 77q-41 55 -41 169v455h131v-455q0 -91 21 -130q26 -50 96 -50q73 0 100 50q20 38 20 130v455h131z" />
    <glyph glyph-name="V" unicode="V" horiz-adv-x="575" 
d="M218 0l-235 690h136l176 -532h2l179 532h116l-239 -690h-135z" />
    <glyph glyph-name="W" unicode="W" horiz-adv-x="908" 
d="M160 0l-137 690h122l100 -525h2l183 525h69l182 -525h2l101 525h101l-136 -690h-116l-181 496h-2l-173 -496h-117z" />
    <glyph glyph-name="X" unicode="X" horiz-adv-x="575" 
d="M0 0l216 351l-198 339h152l124 -220l129 220h128l-197 -320l221 -370h-152l-147 249l-148 -249h-128z" />
    <glyph glyph-name="Y" unicode="Y" horiz-adv-x="538" 
d="M198 0v323l-215 367h151l145 -253l150 253h126l-226 -367v-323h-131z" />
    <glyph glyph-name="Z" unicode="Z" horiz-adv-x="501" 
d="M17 0v83l302 528h-285v79h434v-79l-299 -528h314v-83h-466z" />
    <glyph glyph-name="bracketleft" unicode="[" horiz-adv-x="352" 
d="M99 -136v897h243v-71h-128v-755h128v-71h-243z" />
    <glyph glyph-name="backslash" unicode="\" horiz-adv-x="315" 
d="M219 -136l-229 897h106l229 -897h-106z" />
    <glyph glyph-name="bracketright" unicode="]" horiz-adv-x="352" 
d="M10 -136v71h128v755h-128v71h243v-897h-243z" />
    <glyph glyph-name="asciicircum" unicode="^" horiz-adv-x="426" 
d="M62 518l120 172h62l120 -172h-81l-70 90l-70 -90h-81z" />
    <glyph glyph-name="underscore" unicode="_" horiz-adv-x="500" 
d="M0 -125v50h500v-50h-500z" />
    <glyph glyph-name="grave" unicode="`" horiz-adv-x="335" 
d="M131 559l-83 167h121l45 -167h-83z" />
    <glyph glyph-name="a" unicode="a" horiz-adv-x="500" 
d="M314 0v63h-2q-14 -25 -44 -46q-42 -28 -91 -28q-57 0 -95 34t-38 85q0 147 270 159v80q0 93 -60 93q-40 0 -55 -41q-6 -18 -9 -65h-129q0 153 194 153q104 0 146 -47q34 -38 34 -118v-322h-121zM314 185v35q-145 -14 -145 -95q0 -67 55 -67q41 0 65.5 37t24.5 90z" />
    <glyph glyph-name="b" unicode="b" 
d="M180 690v-278h2q49 75 128 75q169 0 169 -246q0 -252 -206 -252q-137 0 -184 81q-30 51 -30 171v449h121zM185 241q0 -97 11 -138q17 -67 68 -67q84 0 84 205q0 177 -84 177q-79 0 -79 -177z" />
    <glyph glyph-name="c" unicode="c" horiz-adv-x="445" 
d="M434 69v-51q-79 -29 -148 -29q-112 0 -176 62q-72 70 -72 206q0 107 52 166q55 64 163 64q101 0 145 -45q39 -41 39 -127h-129q0 59 -6 80q-12 45 -54 45q-38 0 -60 -45q-19 -40 -19 -97q0 -99 45 -170q48 -77 126 -77q42 0 94 18z" />
    <glyph glyph-name="d" unicode="d" 
d="M331 0v80h-2q-42 -91 -130 -91q-159 0 -159 246q0 252 174 252q78 0 115 -75h2v278h121v-690h-121zM171 235q0 -171 82 -171q72 0 72 171q0 80 -10 119q-17 64 -64 64q-80 0 -80 -183z" />
    <glyph glyph-name="e" unicode="e" horiz-adv-x="482" 
d="M434 72v-50q-77 -33 -154 -33q-104 0 -168 61q-74 71 -74 210q0 227 212 227q193 0 193 -179v-18h-284q0 -80 40 -150q51 -89 142 -89q38 0 93 21zM159 340h167q0 36 -15 63q-21 37 -65 37q-73 0 -87 -100z" />
    <glyph glyph-name="f" unicode="f" horiz-adv-x="371" 
d="M107 0v418h-85v58h85v39q0 82 32 125q45 61 159 61q58 0 117 -11v-79q-52 22 -98 22q-89 0 -89 -100v-57h133v-58h-133v-418h-121z" />
    <glyph glyph-name="g" unicode="g" 
d="M452 476v-492q0 -99 -47 -149q-57 -60 -188 -60q-67 0 -142 20v113q86 -65 153 -65q64 0 86 44q17 33 17 111v71h-2q-18 -32 -35 -46q-29 -23 -79 -23q-175 0 -175 247q0 102 36 165q42 75 127 75q77 0 126 -88h2v77h121zM171 239q0 -170 81 -170q48 0 64 60q9 34 9 107
q0 77 -10 115q-17 61 -64 61q-80 0 -80 -173z" />
    <glyph glyph-name="h" unicode="h" horiz-adv-x="538" 
d="M68 0v690h121v-321h2q52 118 156 118q120 0 120 -159v-328h-121v297q0 52 -8 74q-12 29 -44 29q-57 0 -84 -78q-21 -58 -21 -135v-187h-121z" />
    <glyph glyph-name="i" unicode="i" horiz-adv-x="260" 
d="M69 0v476h121v-476h-121zM69 580v110h121v-110h-121z" />
    <glyph glyph-name="j" unicode="j" horiz-adv-x="260" 
d="M193 476v-507q0 -194 -237 -194q-20 0 -29 2v75q33 -11 57 -11q88 0 88 103v532h121zM72 580v110h121v-110h-121z" />
    <glyph glyph-name="k" unicode="k" horiz-adv-x="501" 
d="M68 0v690h121v-398h2l151 184h134l-183 -202l205 -274h-148l-159 231h-2v-231h-121z" />
    <glyph glyph-name="l" unicode="l" horiz-adv-x="260" 
d="M69 0v690h121v-690h-121z" />
    <glyph glyph-name="m" unicode="m" horiz-adv-x="779" 
d="M68 0v476h121v-107h2q14 44 42 75q39 43 95 43q104 0 120 -113h2q25 51 42 70q38 43 96 43q121 0 121 -169v-318h-121v309q0 91 -51 91q-53 0 -75 -77q-13 -46 -13 -109v-214h-121v297q0 52 -8 74q-12 29 -44 29q-87 0 -87 -213v-187h-121z" />
    <glyph glyph-name="n" unicode="n" horiz-adv-x="538" 
d="M68 0v476h121v-107h2q57 118 156 118q120 0 120 -159v-328h-121v297q0 52 -8 74q-12 29 -44 29q-57 0 -84 -78q-21 -58 -21 -135v-187h-121z" />
    <glyph glyph-name="o" unicode="o" 
d="M260 -11q-220 0 -220 249t220 249q219 0 219 -249t-219 -249zM171 238q0 -98 14 -140q20 -62 75 -62q56 0 75 62q13 41 13 140t-13 140q-19 62 -75 62q-55 0 -75 -62q-14 -42 -14 -140z" />
    <glyph glyph-name="p" unicode="p" 
d="M68 -214v690h121v-80h2q46 91 129 91q159 0 159 -246q0 -252 -174 -252q-76 0 -114 75h-2v-278h-121zM195 241q0 -80 10 -119q17 -64 64 -64q79 0 79 183q0 171 -82 171q-71 0 -71 -171z" />
    <glyph glyph-name="q" unicode="q" 
d="M330 -214v278h-2q-35 -75 -114 -75q-175 0 -175 252q0 246 159 246q88 0 130 -91h2v80h121v-690h-121zM170 241q0 -183 80 -183q47 0 65 64q10 39 10 119q0 171 -73 171q-82 0 -82 -171z" />
    <glyph glyph-name="r" unicode="r" horiz-adv-x="371" 
d="M68 0v476h121v-119h2q32 60 59 86q42 40 102 44v-125q-90 0 -126.5 -34.5t-36.5 -114.5v-213h-121z" />
    <glyph glyph-name="s" unicode="s" horiz-adv-x="371" 
d="M315 469v-99q-64 55 -116 55q-22 0 -39 -10q-20 -12 -20 -35q0 -28 50 -62l85 -58q40 -33 55.5 -60.5t15.5 -67.5q0 -73 -55 -110q-48 -33 -128 -33q-58 0 -125 19v108q67 -58 127 -58q71 0 71 48q0 29 -51 64l-86 59q-38 32 -51.5 57t-13.5 60q0 60 40 98q45 43 130 43
q35 0 111 -18z" />
    <glyph glyph-name="t" unicode="t" horiz-adv-x="371" 
d="M346 65v-70q-58 -6 -85 -6q-77 0 -111 26q-41 30 -41 106v297h-89v58h89v112l121 73v-185h134v-58h-134v-282q0 -46 14 -62t48 -16t54 7z" />
    <glyph glyph-name="u" unicode="u" horiz-adv-x="538" 
d="M342 0v107h-2q-54 -118 -146 -118q-130 0 -130 159v328h121v-297q0 -103 61 -103q52 0 77 78q19 58 19 135v187h121v-476h-121z" />
    <glyph glyph-name="v" unicode="v" horiz-adv-x="445" 
d="M177 0l-176 476h123l110 -318h2l101 318h106l-165 -476h-101z" />
    <glyph glyph-name="w" unicode="w" horiz-adv-x="686" 
d="M154 0l-121 476h111l77 -340h2l94 340h63l103 -333h2l68 333h100l-106 -476h-104l-97 290h-2l-87 -290h-103z" />
    <glyph glyph-name="x" unicode="x" horiz-adv-x="482" 
d="M0 0l177 248l-156 228h139l89 -133l92 133h123l-159 -223l177 -253h-139l-108 159l-111 -159h-124z" />
    <glyph glyph-name="y" unicode="y" horiz-adv-x="445" 
d="M108 -214l71 207l-178 483h124l108 -325h2l111 325h98l-238 -690h-98z" />
    <glyph glyph-name="z" unicode="z" horiz-adv-x="389" 
d="M17 0v77l214 330h-201v69h332v-69l-214 -330h224v-77h-355z" />
    <glyph glyph-name="braceleft" unicode="{" horiz-adv-x="556" 
d="M435 -210v-25q-80 3 -143 50q-68 51 -68 120q0 36 12 96q16 80 16 94q0 44 -34 80q-30 32 -76 47v24q110 35 110 127q0 14 -16 94q-12 60 -12 96q0 69 68 120q63 47 143 50v-25q-52 -12 -81 -53q-26 -36 -26 -83q0 -29 7 -85t7 -79q0 -72 -59 -121q-31 -26 -96 -53
q64 -28 96 -55q59 -50 59 -119q0 -23 -7 -79t-7 -85q0 -47 26 -83q29 -41 81 -53z" />
    <glyph glyph-name="bar" unicode="|" horiz-adv-x="333" 
d="M118 -136v897h98v-897h-98z" />
    <glyph glyph-name="braceright" unicode="}" horiz-adv-x="556" 
d="M120 -235v25q52 12 81 53q26 36 26 83q0 29 -7 85t-7 79q0 69 59 119q32 27 96 55q-65 27 -96 53q-59 49 -59 121q0 23 7 79t7 85q0 47 -26 83q-29 41 -81 53v25q80 -3 143 -50q68 -51 68 -120q0 -36 -12 -96q-16 -80 -16 -94q0 -92 110 -127v-24q-46 -15 -76 -47
q-34 -36 -34 -80q0 -14 16 -94q12 -60 12 -96q0 -69 -68 -120q-63 -47 -143 -50z" />
    <glyph glyph-name="asciitilde" unicode="~" horiz-adv-x="612" 
d="M66 170v90q0 101 86 101q32 0 88 -28l152 -76q36 -18 51 -18q19 0 19 54v46h84v-80q0 -54 -16 -79q-21 -31 -75 -31q-30 0 -92 31l-149 74q-34 17 -45 17q-19 0 -19 -45v-56h-84z" />
    <glyph glyph-name="Adieresis" unicode="&#xc4;" horiz-adv-x="612" 
d="M0 0l238 690h134l240 -690h-139l-60 196h-235l-62 -196h-116zM296 574l-95 -305h190l-93 305h-2zM142 784v111h123v-111h-123zM348 784v111h123v-111h-123z" />
    <glyph glyph-name="Aring" unicode="&#xc5;" horiz-adv-x="612" 
d="M0 0l238 690h134l240 -690h-139l-60 196h-235l-62 -196h-116zM296 574l-95 -305h190l-93 305h-2zM307 773q-41 0 -71 29.5t-30 70.5q0 43 30 72t71 29t70.5 -30t29.5 -71t-29.5 -70.5t-70.5 -29.5zM263 873q0 -18 13 -30.5t31 -12.5q17 0 30 13t13 30q0 18 -13 31t-30 13
q-18 0 -31 -13t-13 -31z" />
    <glyph glyph-name="Ccedilla" unicode="&#xc7;" horiz-adv-x="575" 
d="M249 -105l24 102q-116 25 -175 130q-53 92 -53 231q0 151 63 240q72 103 219 103q119 0 182 -54q60 -52 60 -145h-149q0 133 -101 133q-77 0 -111 -93q-25 -66 -25 -162q0 -308 187 -308q82 0 171 68v-108q-111 -43 -195 -43q-14 0 -19 1l-13 -56q8 2 12 2q38 0 64 -18
q36 -24 36 -73q0 -45 -29 -72q-30 -30 -86 -30q-36 0 -75 21v63q38 -26 67 -26q21 0 32 14t11 30q0 53 -71 53q-12 0 -26 -3z" />
    <glyph glyph-name="Eacute" unicode="&#xc9;" 
d="M73 0v690h403v-79h-272v-212h258v-79h-258v-237h281v-83h-412zM223 773l46 167h120l-83 -167h-83z" />
    <glyph glyph-name="Ntilde" unicode="&#xd1;" horiz-adv-x="667" 
d="M74 0v690h143l267 -512h2v512h107v-690h-130l-280 537h-2v-537h-107zM264 782v0h-59q0 68 9 95q14 42 58 42q23 0 75 -33.5t57 -33.5q18 0 18 58h59q0 -67 -6 -89q-14 -48 -62 -48q-30 0 -77 30t-55 30q-17 0 -17 -51z" />
    <glyph glyph-name="Odieresis" unicode="&#xd6;" horiz-adv-x="667" 
d="M334 -11q-147 0 -220 99q-68 91 -68 257t68 257q73 99 220 99q146 0 220 -99q68 -91 68 -257t-68 -257q-74 -99 -220 -99zM184 345q0 -290 150 -290t150 290t-150 290t-150 -290zM169 784v111h123v-111h-123zM375 784v111h123v-111h-123z" />
    <glyph glyph-name="Udieresis" unicode="&#xdc;" horiz-adv-x="630" 
d="M565 690v-455q0 -114 -41 -169q-58 -77 -210 -77q-150 0 -207 77q-41 55 -41 169v455h131v-455q0 -91 21 -130q26 -50 96 -50q73 0 100 50q20 38 20 130v455h131zM141 784v111h123v-111h-123zM347 784v111h123v-111h-123z" />
    <glyph glyph-name="aacute" unicode="&#xe1;" horiz-adv-x="500" 
d="M314 0v63h-2q-14 -25 -44 -46q-42 -28 -91 -28q-57 0 -95 34t-38 85q0 147 270 159v80q0 93 -60 93q-40 0 -55 -41q-6 -18 -9 -65h-129q0 153 194 153q104 0 146 -47q34 -38 34 -118v-322h-121zM314 185v35q-145 -14 -145 -95q0 -67 55 -67q41 0 65.5 37t24.5 90z
M204 559l46 167h120l-83 -167h-83z" />
    <glyph glyph-name="agrave" unicode="&#xe0;" horiz-adv-x="500" 
d="M314 0v63h-2q-14 -25 -44 -46q-42 -28 -91 -28q-57 0 -95 34t-38 85q0 147 270 159v80q0 93 -60 93q-40 0 -55 -41q-6 -18 -9 -65h-129q0 153 194 153q104 0 146 -47q34 -38 34 -118v-322h-121zM314 185v35q-145 -14 -145 -95q0 -67 55 -67q41 0 65.5 37t24.5 90z
M229 559l-83 167h121l45 -167h-83z" />
    <glyph glyph-name="acircumflex" unicode="&#xe2;" horiz-adv-x="500" 
d="M314 0v63h-2q-14 -25 -44 -46q-42 -28 -91 -28q-57 0 -95 34t-38 85q0 147 270 159v80q0 93 -60 93q-40 0 -55 -41q-6 -18 -9 -65h-129q0 153 194 153q104 0 146 -47q34 -38 34 -118v-322h-121zM314 185v35q-145 -14 -145 -95q0 -67 55 -67q41 0 65.5 37t24.5 90zM99 559
l97 149h108l97 -149h-81l-70 84l-70 -84h-81z" />
    <glyph glyph-name="adieresis" unicode="&#xe4;" horiz-adv-x="500" 
d="M314 0v63h-2q-14 -25 -44 -46q-42 -28 -91 -28q-57 0 -95 34t-38 85q0 147 270 159v80q0 93 -60 93q-40 0 -55 -41q-6 -18 -9 -65h-129q0 153 194 153q104 0 146 -47q34 -38 34 -118v-322h-121zM314 185v35q-145 -14 -145 -95q0 -67 55 -67q41 0 65.5 37t24.5 90zM86 570
v111h123v-111h-123zM292 570v111h123v-111h-123z" />
    <glyph glyph-name="atilde" unicode="&#xe3;" horiz-adv-x="500" 
d="M314 0v63h-2q-14 -25 -44 -46q-42 -28 -91 -28q-57 0 -95 34t-38 85q0 147 270 159v80q0 93 -60 93q-40 0 -55 -41q-6 -18 -9 -65h-129q0 153 194 153q104 0 146 -47q34 -38 34 -118v-322h-121zM314 185v35q-145 -14 -145 -95q0 -67 55 -67q41 0 65.5 37t24.5 90z
M171 568v0h-59q0 68 9 95q14 42 58 42q23 0 75 -33.5t57 -33.5q18 0 18 58h59q0 -67 -6 -89q-14 -48 -62 -48q-30 0 -77 30t-55 30q-17 0 -17 -51z" />
    <glyph glyph-name="aring" unicode="&#xe5;" horiz-adv-x="500" 
d="M314 0v63h-2q-14 -25 -44 -46q-42 -28 -91 -28q-57 0 -95 34t-38 85q0 147 270 159v80q0 93 -60 93q-40 0 -55 -41q-6 -18 -9 -65h-129q0 153 194 153q104 0 146 -47q34 -38 34 -118v-322h-121zM314 185v35q-145 -14 -145 -95q0 -67 55 -67q41 0 65.5 37t24.5 90z
M251 559q-41 0 -71 29.5t-30 70.5q0 43 30 72t71 29t70.5 -30t29.5 -71t-29.5 -70.5t-70.5 -29.5zM207 659q0 -18 13 -30.5t31 -12.5q17 0 30 13t13 30q0 18 -13 31t-30 13q-18 0 -31 -13t-13 -31z" />
    <glyph glyph-name="ccedilla" unicode="&#xe7;" horiz-adv-x="445" 
d="M184 -105l24 104q-170 43 -170 258q0 107 52 166q55 64 163 64q101 0 145 -45q39 -41 39 -127h-129q0 59 -6 80q-12 45 -54 45q-38 0 -60 -45q-19 -40 -19 -97q0 -99 45 -170q48 -77 126 -77q42 0 94 18v-51q-79 -29 -148 -29q-17 0 -24 1l-13 -56q8 2 12 2q38 0 64 -18
q36 -24 36 -73q0 -45 -29 -72q-30 -30 -86 -30q-36 0 -75 21v63q38 -26 67 -26q21 0 32 14t11 30q0 53 -71 53q-12 0 -26 -3z" />
    <glyph glyph-name="eacute" unicode="&#xe9;" horiz-adv-x="482" 
d="M434 72v-50q-77 -33 -154 -33q-104 0 -168 61q-74 71 -74 210q0 227 212 227q193 0 193 -179v-18h-284q0 -80 40 -150q51 -89 142 -89q38 0 93 21zM159 340h167q0 36 -15 63q-21 37 -65 37q-73 0 -87 -100zM195 559l46 167h120l-83 -167h-83z" />
    <glyph glyph-name="egrave" unicode="&#xe8;" horiz-adv-x="482" 
d="M434 72v-50q-77 -33 -154 -33q-104 0 -168 61q-74 71 -74 210q0 227 212 227q193 0 193 -179v-18h-284q0 -80 40 -150q51 -89 142 -89q38 0 93 21zM159 340h167q0 36 -15 63q-21 37 -65 37q-73 0 -87 -100zM205 559l-83 167h121l45 -167h-83z" />
    <glyph glyph-name="ecircumflex" unicode="&#xea;" horiz-adv-x="482" 
d="M434 72v-50q-77 -33 -154 -33q-104 0 -168 61q-74 71 -74 210q0 227 212 227q193 0 193 -179v-18h-284q0 -80 40 -150q51 -89 142 -89q38 0 93 21zM159 340h167q0 36 -15 63q-21 37 -65 37q-73 0 -87 -100zM90 559l97 149h108l97 -149h-81l-70 84l-70 -84h-81z" />
    <glyph glyph-name="edieresis" unicode="&#xeb;" horiz-adv-x="482" 
d="M434 72v-50q-77 -33 -154 -33q-104 0 -168 61q-74 71 -74 210q0 227 212 227q193 0 193 -179v-18h-284q0 -80 40 -150q51 -89 142 -89q38 0 93 21zM159 340h167q0 36 -15 63q-21 37 -65 37q-73 0 -87 -100zM77 570v111h123v-111h-123zM283 570v111h123v-111h-123z" />
    <glyph glyph-name="iacute" unicode="&#xed;" horiz-adv-x="260" 
d="M69 0v476h121v-476h-121zM84 559l46 167h120l-83 -167h-83z" />
    <glyph glyph-name="igrave" unicode="&#xec;" horiz-adv-x="260" 
d="M69 0v476h121v-476h-121zM94 559l-83 167h121l45 -167h-83z" />
    <glyph glyph-name="icircumflex" unicode="&#xee;" horiz-adv-x="260" 
d="M69 0v476h121v-476h-121zM-21 559l97 149h108l97 -149h-81l-70 84l-70 -84h-81z" />
    <glyph glyph-name="idieresis" unicode="&#xef;" horiz-adv-x="260" 
d="M69 0v476h121v-476h-121zM-34 570v111h123v-111h-123zM172 570v111h123v-111h-123z" />
    <glyph glyph-name="ntilde" unicode="&#xf1;" horiz-adv-x="538" 
d="M68 0v476h121v-107h2q57 118 156 118q120 0 120 -159v-328h-121v297q0 52 -8 74q-12 29 -44 29q-57 0 -84 -78q-21 -58 -21 -135v-187h-121zM190 568v0h-59q0 68 9 95q14 42 58 42q23 0 75 -33.5t57 -33.5q18 0 18 58h59q0 -67 -6 -89q-14 -48 -62 -48q-30 0 -77 30
t-55 30q-17 0 -17 -51z" />
    <glyph glyph-name="oacute" unicode="&#xf3;" 
d="M260 -11q-220 0 -220 249t220 249q219 0 219 -249t-219 -249zM171 238q0 -98 14 -140q20 -62 75 -62q56 0 75 62q13 41 13 140t-13 140q-19 62 -75 62q-55 0 -75 -62q-14 -42 -14 -140zM213 559l46 167h120l-83 -167h-83z" />
    <glyph glyph-name="ograve" unicode="&#xf2;" 
d="M260 -11q-220 0 -220 249t220 249q219 0 219 -249t-219 -249zM171 238q0 -98 14 -140q20 -62 75 -62q56 0 75 62q13 41 13 140t-13 140q-19 62 -75 62q-55 0 -75 -62q-14 -42 -14 -140zM223 559l-83 167h121l45 -167h-83z" />
    <glyph glyph-name="ocircumflex" unicode="&#xf4;" 
d="M260 -11q-220 0 -220 249t220 249q219 0 219 -249t-219 -249zM171 238q0 -98 14 -140q20 -62 75 -62q56 0 75 62q13 41 13 140t-13 140q-19 62 -75 62q-55 0 -75 -62q-14 -42 -14 -140zM108 559l97 149h108l97 -149h-81l-70 84l-70 -84h-81z" />
    <glyph glyph-name="odieresis" unicode="&#xf6;" 
d="M260 -11q-220 0 -220 249t220 249q219 0 219 -249t-219 -249zM171 238q0 -98 14 -140q20 -62 75 -62q56 0 75 62q13 41 13 140t-13 140q-19 62 -75 62q-55 0 -75 -62q-14 -42 -14 -140zM95 570v111h123v-111h-123zM301 570v111h123v-111h-123z" />
    <glyph glyph-name="otilde" unicode="&#xf5;" 
d="M260 -11q-220 0 -220 249t220 249q219 0 219 -249t-219 -249zM171 238q0 -98 14 -140q20 -62 75 -62q56 0 75 62q13 41 13 140t-13 140q-19 62 -75 62q-55 0 -75 -62q-14 -42 -14 -140zM180 568v0h-59q0 68 9 95q14 42 58 42q23 0 75 -33.5t57 -33.5q18 0 18 58h59
q0 -67 -6 -89q-14 -48 -62 -48q-30 0 -77 30t-55 30q-17 0 -17 -51z" />
    <glyph glyph-name="uacute" unicode="&#xfa;" horiz-adv-x="538" 
d="M342 0v107h-2q-54 -118 -146 -118q-130 0 -130 159v328h121v-297q0 -103 61 -103q52 0 77 78q19 58 19 135v187h121v-476h-121zM223 559l46 167h120l-83 -167h-83z" />
    <glyph glyph-name="ugrave" unicode="&#xf9;" horiz-adv-x="538" 
d="M342 0v107h-2q-54 -118 -146 -118q-130 0 -130 159v328h121v-297q0 -103 61 -103q52 0 77 78q19 58 19 135v187h121v-476h-121zM233 559l-83 167h121l45 -167h-83z" />
    <glyph glyph-name="ucircumflex" unicode="&#xfb;" horiz-adv-x="538" 
d="M342 0v107h-2q-54 -118 -146 -118q-130 0 -130 159v328h121v-297q0 -103 61 -103q52 0 77 78q19 58 19 135v187h121v-476h-121zM108 559l97 149h108l97 -149h-81l-70 84l-70 -84h-81z" />
    <glyph glyph-name="udieresis" unicode="&#xfc;" horiz-adv-x="538" 
d="M342 0v107h-2q-54 -118 -146 -118q-130 0 -130 159v328h121v-297q0 -103 61 -103q52 0 77 78q19 58 19 135v187h121v-476h-121zM95 570v111h123v-111h-123zM301 570v111h123v-111h-123z" />
    <glyph glyph-name="dagger" unicode="&#x2020;" horiz-adv-x="574" 
d="M226 0v372h-196v83h196v235h122v-235h196v-83h-196v-372h-122z" />
    <glyph glyph-name="degree" unicode="&#xb0;" horiz-adv-x="352" 
d="M176 413q-48 0 -82 34t-34 82t34 82t82 34t82 -34t34 -82t-34 -82t-82 -34zM117 529q0 -24 17 -41.5t42 -17.5t42 17.5t17 41.5q0 25 -17.5 42t-41.5 17t-41.5 -17t-17.5 -42z" />
    <glyph glyph-name="cent" unicode="&#xa2;" horiz-adv-x="482" 
d="M225 -102v91q-192 33 -192 269q0 108 53 168q50 56 139 61v83h50v-83q76 -9 122 -49q52 -47 52 -125h-114q0 104 -60 127v-391q28 -7 50 -7q60 0 110 24v-47q-81 -30 -160 -30v-91h-50zM225 76v364q-66 -24 -66 -168q0 -124 66 -196z" />
    <glyph glyph-name="sterling" unicode="&#xa3;" 
d="M106 0v299h-74v58h74v142q0 167 203 167q106 0 163 -49q48 -41 55 -106h-137q0 44 -11 63q-17 29 -63 29q-53 0 -69 -35q-15 -30 -15 -119v-92h142v-58h-142v-210h272v-89h-398z" />
    <glyph glyph-name="section" unicode="&#xa7;" horiz-adv-x="501" 
d="M426 675v-100q-87 57 -170 57q-34 0 -57 -12q-28 -13 -28 -39q0 -30 86 -67q128 -55 144 -65q38 -24 53 -47t15 -58q0 -65 -66 -115q46 -46 46 -99q0 -73 -68 -110q-56 -31 -143 -31q-79 0 -169 24v109q91 -64 177 -64q89 0 89 56q0 27 -61 57l-113 49q-70 32 -92 51
q-38 31 -38 83q0 64 67 120q-41 41 -41 94q0 65 61 101q53 32 133 32q47 0 112 -12zM238 313q53 -23 122 -56q23 29 23 45q0 34 -52 62q-5 2 -109 46q-10 4 -77 34q-28 -25 -28 -46q0 -25 39 -47q3 -2 82 -38z" />
    <glyph glyph-name="bullet" unicode="&#x2022;" horiz-adv-x="556" 
d="M278 164q-74 0 -127.5 53t-53.5 127q0 75 53 128.5t128 53.5t128 -53.5t53 -128.5q0 -74 -53.5 -127t-127.5 -53z" />
    <glyph glyph-name="paragraph" unicode="&#xb6;" horiz-adv-x="556" 
d="M326 -214v437q-83 10 -142 57q-79 62 -79 170q0 120 97 185q82 55 202 55h115v-37h-58v-867h-37v867h-61v-867h-37z" />
    <glyph glyph-name="germandbls" unicode="&#xdf;" horiz-adv-x="556" 
d="M62 0v440q0 123 30 178q46 83 178 83q91 0 146 -45q60 -49 60 -136q0 -112 -118 -146v-2q68 -11 100 -37q52 -44 52 -147q0 -199 -201 -199q-48 0 -88 11v57q33 -18 61 -18q58 0 80 46q17 33 17 102q0 101 -30 134q-25 28 -95 28v47q51 1 71 27t20 92q0 139 -76 139
q-57 0 -75 -73q-11 -42 -11 -145v-436h-121z" />
    <glyph glyph-name="registered" unicode="&#xae;" horiz-adv-x="500" 
d="M250 231q-97 0 -166 69t-69 166t69 166t166 69t166 -69t69 -166t-68.5 -166t-166.5 -69zM50 466q0 -82 59 -141t141 -59q83 0 141.5 59t58.5 141q0 83 -58.5 141.5t-141.5 58.5q-82 0 -141 -58.5t-59 -141.5zM161 348v248h83q101 0 101 -80q0 -28 -15 -44q-7 -6 -28 -17
l46 -107h-50l-38 100h-54v-100h-45zM206 553v-65h54q38 0 38 32q0 33 -42 33h-50z" />
    <glyph glyph-name="copyright" unicode="&#xa9;" horiz-adv-x="500" 
d="M250 231q-97 0 -166 69t-69 166t69 166t166 69t166 -69t69 -166t-68.5 -166t-166.5 -69zM50 466q0 -82 59 -141t141 -59q83 0 141.5 59t58.5 141q0 83 -58.5 141.5t-141.5 58.5q-82 0 -141 -58.5t-59 -141.5zM331 407l26 -32q-43 -39 -95 -39q-55 0 -96 38.5t-41 95.5
q0 56 41 95t96 39q48 0 95 -39l-26 -33q-34 31 -69 31t-63 -24q-30 -27 -30 -69q0 -43 30 -70q27 -23 59 -23q38 0 73 30z" />
    <glyph glyph-name="trademark" unicode="&#x2122;" horiz-adv-x="612" 
d="M128 400v248h-73v42h190v-42h-74v-248h-43zM278 400v290h78l60 -228h2l59 228h80v-290h-43v262h-2l-68 -262h-53l-68 262h-2v-262h-43z" />
    <glyph glyph-name="acute" unicode="&#xb4;" horiz-adv-x="335" 
d="M121 559l46 167h120l-83 -167h-83z" />
    <glyph glyph-name="dieresis" unicode="&#xa8;" horiz-adv-x="335" 
d="M3 570v111h123v-111h-123zM209 570v111h123v-111h-123z" />
    <glyph glyph-name="AE" unicode="&#xc6;" horiz-adv-x="871" 
d="M3 0l395 690h428v-79h-268l25 -253h236v-79h-228l19 -196h227v-83h-345l-24 279h-193l-148 -279h-124zM440 592l-123 -234h144l-19 234h-2z" />
    <glyph glyph-name="Oslash" unicode="&#xd8;" horiz-adv-x="667" 
d="M195 211l240 369q-36 55 -101 55q-150 0 -150 -290q0 -73 11 -134zM107 -41l-49 41l56 87q-68 91 -68 258q0 166 68 257q73 99 220 99q90 0 154 -39l51 77l51 -38l-52 -80q84 -91 84 -276q0 -166 -68 -257q-74 -99 -220 -99q-106 0 -174 51zM465 509l-246 -377
q38 -77 115 -77q150 0 150 290q0 98 -19 164z" />
    <glyph glyph-name="plusminus" unicode="&#xb1;" horiz-adv-x="593" 
d="M248 0v209h-189v91h189v187h98v-187h189v-91h-189v-209h-98zM59 -138v91h476v-91h-476z" />
    <glyph glyph-name="yen" unicode="&#xa5;" horiz-adv-x="538" 
d="M198 323l-43 74h-135v58h101l-138 235h151l145 -253l150 253h126l-145 -235h108v-58h-144l-45 -74v-63h189v-58h-189v-202h-131v202h-178v58h178v63z" />
    <glyph glyph-name="mu" unicode="&#xb5;" horiz-adv-x="538" 
d="M70 -214v690h121v-270q0 -63 13 -93q16 -37 56 -37q50 0 66 64q15 56 15 217v119h121v-320q0 -49 4 -65q8 -39 40 -39q1 0 22 3v-50q-37 -16 -66 -16q-118 0 -118 115h-2q-17 -115 -105 -115q-29 0 -56 18v-221h-111z" />
    <glyph glyph-name="mu" unicode="&#x3bc;" horiz-adv-x="538" 
d="M70 -214v690h121v-270q0 -63 13 -93q16 -37 56 -37q50 0 66 64q15 56 15 217v119h121v-320q0 -49 4 -65q8 -39 40 -39q1 0 22 3v-50q-37 -16 -66 -16q-118 0 -118 115h-2q-17 -115 -105 -115q-29 0 -56 18v-221h-111z" />
    <glyph glyph-name="ordfeminine" unicode="&#xaa;" horiz-adv-x="297" 
d="M190 286v35h-2q-20 -40 -75 -40q-31 0 -52 19t-21 47q0 80 150 88v27q0 37 -4 49q-7 21 -30 21q-37 0 -37 -59h-70q0 85 108 85q63 0 84 -31q15 -21 15 -73v-168h-66zM109 356q0 -36 31 -36q13 0 28 12t19 29q3 12 3 48q-81 -7 -81 -53z" />
    <glyph glyph-name="ordmasculine" unicode="&#xba;" horiz-adv-x="297" 
d="M148 281q-122 0 -122 139q0 72 29 105t93 33q123 0 123 -138q0 -73 -29.5 -106t-93.5 -33zM99 420q0 -57 8 -80q10 -33 41 -33t42 33q8 24 8 80q0 54 -8 78q-11 34 -42 34q-30 0 -41 -34q-8 -24 -8 -78z" />
    <glyph glyph-name="ae" unicode="&#xe6;" horiz-adv-x="742" 
d="M696 74v-55q-66 -30 -152 -30q-106 0 -175 80q-32 -40 -55 -54q-41 -26 -107 -26q-72 0 -117.5 40.5t-45.5 106.5q0 88 86 129q66 32 172 32h18q0 143 -76 143q-54 0 -54 -88h-129q0 66 49 100.5t131 34.5q100 0 128 -74q50 74 147 74q117 0 160 -86q27 -53 27 -154h-272
q4 -60 32 -111q47 -85 147 -85q45 0 86 23zM320 247h-11q-61 0 -98 -26q-42 -29 -42 -85q0 -34 15 -57q19 -28 54 -28q82 0 82 141v55zM587 297v30q0 113 -70 113q-44 0 -68 -57q-18 -42 -18 -86h156z" />
    <glyph glyph-name="oslash" unicode="&#xf8;" 
d="M174 169l154 227q-21 44 -68 44q-55 0 -75 -62q-14 -42 -14 -140q0 -47 1 -69h2zM344 331l-160 -234q20 -61 76 -61t75 62q13 41 13 140q0 65 -4 93zM81 -54l-41 28l53 78q-53 62 -53 186q0 249 220 249q68 0 114 -23l44 64l39 -31l-42 -62q64 -61 64 -197
q0 -249 -219 -249q-77 0 -128 30z" />
    <glyph glyph-name="questiondown" unicode="&#xbf;" horiz-adv-x="463" 
d="M408 -16v-116q-99 -15 -138 -15q-236 0 -236 161q0 49 32 92q22 29 72 70q57 46 74 65q29 32 29 88v20h91v-36q0 -80 -31 -121l-91 -98t-45 -90q0 -34 25.5 -54.5t68.5 -20.5q68 0 149 55zM217 416v138h138v-138h-138z" />
    <glyph glyph-name="exclamdown" unicode="&#xa1;" horiz-adv-x="315" 
d="M52 -136l24 485h89l24 -485h-137zM52 416v138h137v-138h-137z" />
    <glyph glyph-name="logicalnot" unicode="&#xac;" horiz-adv-x="593" 
d="M436 123v173h-378v91h476v-264h-98z" />
    <glyph glyph-name="florin" unicode="&#x192;" horiz-adv-x="482" 
d="M95 0l74 418h-82l10 58h82l4 24q15 88 50 131q56 70 180 70q58 0 115 -11l-14 -79q-45 25 -93 25q-66 0 -95 -53q-13 -25 -22 -81l-4 -26h137l-11 -58h-136l-73 -418h-122z" />
    <glyph glyph-name="guillemotleft" unicode="&#xab;" horiz-adv-x="408" 
d="M109 59l-85 193l85 193h98l-65 -193l65 -193h-98zM275 59l-85 193l85 193h98l-65 -193l65 -193h-98z" />
    <glyph glyph-name="guillemotright" unicode="&#xbb;" horiz-adv-x="408" 
d="M35 59l64 193l-64 193h97l86 -193l-86 -193h-97zM201 59l64 193l-64 193h98l85 -193l-85 -193h-98z" />
    <glyph glyph-name="ellipsis" unicode="&#x2026;" horiz-adv-x="741" 
d="M67 0v117h117v-117h-117zM312 0v117h117v-117h-117zM557 0v117h117v-117h-117z" />
    <glyph glyph-name="Agrave" unicode="&#xc0;" horiz-adv-x="612" 
d="M0 0l238 690h134l240 -690h-139l-60 196h-235l-62 -196h-116zM296 574l-95 -305h190l-93 305h-2zM270 773l-83 167h121l45 -167h-83z" />
    <glyph glyph-name="Atilde" unicode="&#xc3;" horiz-adv-x="612" 
d="M0 0l238 690h134l240 -690h-139l-60 196h-235l-62 -196h-116zM296 574l-95 -305h190l-93 305h-2zM227 782v0h-59q0 68 9 95q14 42 58 42q23 0 75 -33.5t57 -33.5q18 0 18 58h59q0 -67 -6 -89q-14 -48 -62 -48q-30 0 -77 30t-55 30q-17 0 -17 -51z" />
    <glyph glyph-name="Otilde" unicode="&#xd5;" horiz-adv-x="667" 
d="M334 -11q-147 0 -220 99q-68 91 -68 257t68 257q73 99 220 99q146 0 220 -99q68 -91 68 -257t-68 -257q-74 -99 -220 -99zM184 345q0 -290 150 -290t150 290t-150 290t-150 -290zM254 782v0h-59q0 68 9 95q14 42 58 42q23 0 75 -33.5t57 -33.5q18 0 18 58h59
q0 -67 -6 -89q-14 -48 -62 -48q-30 0 -77 30t-55 30q-17 0 -17 -51z" />
    <glyph glyph-name="OE" unicode="&#x152;" horiz-adv-x="927" 
d="M486 0v85h-2q-57 -96 -180 -96q-131 0 -197 99q-61 91 -61 257t61 257q66 99 197 99q121 0 180 -91h2v80h399v-79h-274v-210h260v-79h-260v-239h282v-83h-407zM184 345q0 -290 148 -290q154 0 154 290q0 135 -37 210q-40 80 -117 80q-148 0 -148 -290z" />
    <glyph glyph-name="oe" unicode="&#x153;" horiz-adv-x="779" 
d="M619 294v16q0 130 -69 130q-47 0 -72 -59q-18 -43 -18 -87h159zM731 72v-55q-80 -28 -146 -28q-70 0 -117 27q-28 16 -59 52q-47 -79 -149 -79q-220 0 -220 249t220 249q100 0 144 -73q49 73 148 73q117 0 160 -86q28 -55 28 -157h-280q4 -60 37 -112q50 -81 145 -81
q44 0 89 21zM171 238q0 -98 14 -140q20 -62 75 -62q60 0 80 62q13 40 13 140q0 98 -14 140q-21 62 -79 62q-55 0 -75 -62q-14 -42 -14 -140z" />
    <glyph glyph-name="endash" unicode="&#x2013;" horiz-adv-x="556" 
d="M46 204v107h464v-107h-464z" />
    <glyph glyph-name="emdash" unicode="&#x2014;" horiz-adv-x="723" 
d="M46 204v107h632v-107h-632z" />
    <glyph glyph-name="quotedblleft" unicode="&#x201c;" horiz-adv-x="426" 
d="M43 453l52 237h91l-8 -237h-135zM228 453l53 237h91l-9 -237h-135z" />
    <glyph glyph-name="quotedblright" unicode="&#x201d;" horiz-adv-x="426" 
d="M55 453l9 237h135l-53 -237h-91zM240 453l9 237h135l-53 -237h-91z" />
    <glyph glyph-name="quoteleft" unicode="&#x2018;" horiz-adv-x="241" 
d="M43 453l52 237h91l-8 -237h-135z" />
    <glyph glyph-name="quoteright" unicode="&#x2019;" horiz-adv-x="241" 
d="M55 453l9 237h135l-53 -237h-91z" />
    <glyph glyph-name="divide" unicode="&#xf7;" horiz-adv-x="593" 
d="M238 0v117h117v-117h-117zM238 370v117h117v-117h-117zM59 198v91h476v-91h-476z" />
    <glyph glyph-name="ydieresis" unicode="&#xff;" horiz-adv-x="445" 
d="M108 -214l71 207l-178 483h124l108 -325h2l111 325h98l-238 -690h-98zM58 570v111h123v-111h-123zM264 570v111h123v-111h-123z" />
    <glyph glyph-name="Ydieresis" unicode="&#x178;" horiz-adv-x="538" 
d="M198 0v323l-215 367h151l145 -253l150 253h126l-226 -367v-323h-131zM105 784v111h123v-111h-123zM311 784v111h123v-111h-123z" />
    <glyph glyph-name="currency" unicode="&#xa4;" horiz-adv-x="500" 
d="M44 118l-30 30l67 67q-46 52 -46 136q0 78 47 138l-69 70l32 31l68 -68q64 46 137 46t137 -46l68 68l32 -31l-69 -70q47 -48 47 -138q0 -84 -46 -136l67 -67l-30 -30l-66 66q-63 -47 -140 -47q-80 0 -140 47zM76 351q0 -72 51 -122.5t123 -50.5q71 0 122.5 51t51.5 122
q0 72 -51.5 124t-122.5 52t-122.5 -52t-51.5 -124z" />
    <glyph glyph-name="guilsinglleft" unicode="&#x2039;" horiz-adv-x="241" 
d="M109 59l-85 193l85 193h98l-65 -193l65 -193h-98z" />
    <glyph glyph-name="guilsinglright" unicode="&#x203a;" horiz-adv-x="241" 
d="M34 59l64 193l-64 193h97l86 -193l-86 -193h-97z" />
    <glyph glyph-name="daggerdbl" unicode="&#x2021;" horiz-adv-x="593" 
d="M236 0v291h-196v83h196v77h-196v83h196v156h122v-156h196v-83h-196v-77h196v-83h-196v-291h-122z" />
    <glyph glyph-name="periodcentered" unicode="&#xb7;" horiz-adv-x="241" 
d="M59 256v122h123v-122h-123z" />
    <glyph glyph-name="periodcentered" unicode="&#x2219;" horiz-adv-x="241" 
d="M59 256v122h123v-122h-123z" />
    <glyph glyph-name="quotesinglbase" unicode="&#x201a;" horiz-adv-x="241" 
d="M55 -99l9 237h135l-53 -237h-91z" />
    <glyph glyph-name="quotedblbase" unicode="&#x201e;" horiz-adv-x="426" 
d="M55 -99l9 237h135l-53 -237h-91zM240 -99l9 237h135l-53 -237h-91z" />
    <glyph glyph-name="perthousand" unicode="&#x2030;" horiz-adv-x="1279" 
d="M194 199q-165 0 -165 223t165 223q166 0 166 -223t-166 -223zM120 422q0 -180 74 -180q75 0 75 180t-75 180q-74 0 -74 -180zM694 -11q-165 0 -165 223q0 224 165 224q166 0 166 -224q0 -223 -166 -223zM620 212q0 -180 74 -180q75 0 75 180q0 181 -75 181
q-74 0 -74 -181zM1084 -11q-166 0 -166 223q0 224 166 224q165 0 165 -224q0 -223 -165 -223zM1009 212q0 -180 75 -180q74 0 74 180q0 181 -74 181q-75 0 -75 -181zM290 0l232 634h76l-232 -634h-76z" />
    <glyph glyph-name="Acircumflex" unicode="&#xc2;" horiz-adv-x="612" 
d="M0 0l238 690h134l240 -690h-139l-60 196h-235l-62 -196h-116zM296 574l-95 -305h190l-93 305h-2zM155 773l97 149h108l97 -149h-81l-70 84l-70 -84h-81z" />
    <glyph glyph-name="Ecircumflex" unicode="&#xca;" 
d="M73 0v690h403v-79h-272v-212h258v-79h-258v-237h281v-83h-412zM118 773l97 149h108l97 -149h-81l-70 84l-70 -84h-81z" />
    <glyph glyph-name="Aacute" unicode="&#xc1;" horiz-adv-x="612" 
d="M0 0l238 690h134l240 -690h-139l-60 196h-235l-62 -196h-116zM296 574l-95 -305h190l-93 305h-2zM260 773l46 167h120l-83 -167h-83z" />
    <glyph glyph-name="Edieresis" unicode="&#xcb;" 
d="M73 0v690h403v-79h-272v-212h258v-79h-258v-237h281v-83h-412zM105 784v111h123v-111h-123zM311 784v111h123v-111h-123z" />
    <glyph glyph-name="Egrave" unicode="&#xc8;" 
d="M73 0v690h403v-79h-272v-212h258v-79h-258v-237h281v-83h-412zM238 773l-83 167h121l45 -167h-83z" />
    <glyph glyph-name="Iacute" unicode="&#xcd;" horiz-adv-x="278" 
d="M73 0v690h131v-690h-131zM93 773l46 167h120l-83 -167h-83z" />
    <glyph glyph-name="Icircumflex" unicode="&#xce;" horiz-adv-x="278" 
d="M73 0v690h131v-690h-131zM-22 773l97 149h108l97 -149h-81l-70 84l-70 -84h-81z" />
    <glyph glyph-name="Idieresis" unicode="&#xcf;" horiz-adv-x="278" 
d="M73 0v690h131v-690h-131zM-35 784v111h123v-111h-123zM171 784v111h123v-111h-123z" />
    <glyph glyph-name="Igrave" unicode="&#xcc;" horiz-adv-x="278" 
d="M73 0v690h131v-690h-131zM103 773l-83 167h121l45 -167h-83z" />
    <glyph glyph-name="Oacute" unicode="&#xd3;" horiz-adv-x="667" 
d="M334 -11q-147 0 -220 99q-68 91 -68 257t68 257q73 99 220 99q146 0 220 -99q68 -91 68 -257t-68 -257q-74 -99 -220 -99zM184 345q0 -290 150 -290t150 290t-150 290t-150 -290zM287 773l46 167h120l-83 -167h-83z" />
    <glyph glyph-name="Ocircumflex" unicode="&#xd4;" horiz-adv-x="667" 
d="M334 -11q-147 0 -220 99q-68 91 -68 257t68 257q73 99 220 99q146 0 220 -99q68 -91 68 -257t-68 -257q-74 -99 -220 -99zM184 345q0 -290 150 -290t150 290t-150 290t-150 -290zM182 773l97 149h108l97 -149h-81l-70 84l-70 -84h-81z" />
    <glyph glyph-name="Ograve" unicode="&#xd2;" horiz-adv-x="667" 
d="M334 -11q-147 0 -220 99q-68 91 -68 257t68 257q73 99 220 99q146 0 220 -99q68 -91 68 -257t-68 -257q-74 -99 -220 -99zM184 345q0 -290 150 -290t150 290t-150 290t-150 -290zM297 773l-83 167h121l45 -167h-83z" />
    <glyph glyph-name="Uacute" unicode="&#xda;" horiz-adv-x="630" 
d="M565 690v-455q0 -114 -41 -169q-58 -77 -210 -77q-150 0 -207 77q-41 55 -41 169v455h131v-455q0 -91 21 -130q26 -50 96 -50q73 0 100 50q20 38 20 130v455h131zM269 773l46 167h120l-83 -167h-83z" />
    <glyph glyph-name="Ucircumflex" unicode="&#xdb;" horiz-adv-x="630" 
d="M565 690v-455q0 -114 -41 -169q-58 -77 -210 -77q-150 0 -207 77q-41 55 -41 169v455h131v-455q0 -91 21 -130q26 -50 96 -50q73 0 100 50q20 38 20 130v455h131zM164 773l97 149h108l97 -149h-81l-70 84l-70 -84h-81z" />
    <glyph glyph-name="Ugrave" unicode="&#xd9;" horiz-adv-x="630" 
d="M565 690v-455q0 -114 -41 -169q-58 -77 -210 -77q-150 0 -207 77q-41 55 -41 169v455h131v-455q0 -91 21 -130q26 -50 96 -50q73 0 100 50q20 38 20 130v455h131zM279 773l-83 167h121l45 -167h-83z" />
    <glyph glyph-name="circumflex" unicode="&#x2c6;" horiz-adv-x="335" 
d="M16 559l97 149h108l97 -149h-81l-70 84l-70 -84h-81z" />
    <glyph glyph-name="tilde" unicode="&#x2dc;" horiz-adv-x="335" 
d="M88 568v0h-59q0 68 9 95q14 42 58 42q23 0 75 -33.5t57 -33.5q18 0 18 58h59q0 -67 -6 -89q-14 -48 -62 -48q-30 0 -77 30t-55 30q-17 0 -17 -51z" />
    <glyph glyph-name="macron" unicode="&#xaf;" horiz-adv-x="335" 
d="M14 559v77h306v-77h-306z" />
    <glyph glyph-name="macron" unicode="&#x2c9;" horiz-adv-x="335" 
d="M14 559v77h306v-77h-306z" />
    <glyph glyph-name="cedilla" unicode="&#xb8;" horiz-adv-x="335" 
d="M213 16l-19 -82q8 2 12 2q38 0 64 -18q36 -24 36 -73q0 -45 -29 -72q-30 -30 -86 -30q-36 0 -75 21v63q38 -26 67 -26q21 0 32 14t11 30q0 53 -71 53q-12 0 -26 -3l28 121h56z" />
    <glyph glyph-name="Scaron" unicode="&#x160;" 
d="M440 682v-107q-94 47 -190 47q-42 0 -68 -19.5t-26 -51.5q0 -54 87 -105l163 -94q87 -67 87 -158q0 -205 -260 -205q-76 0 -187 31v122q119 -74 208 -74q41 0 71 18q37 22 37 66q0 63 -85 117l-157 96q-85 65 -85 158q0 84 61 131t172 47q73 0 172 -19zM205 773l-97 149
h81l70 -84l70 84h81l-97 -149h-108z" />
    <glyph glyph-name="scaron" unicode="&#x161;" horiz-adv-x="371" 
d="M315 469v-99q-64 55 -116 55q-22 0 -39 -10q-20 -12 -20 -35q0 -28 50 -62l85 -58q40 -33 55.5 -60.5t15.5 -67.5q0 -73 -55 -110q-48 -33 -128 -33q-58 0 -125 19v108q67 -58 127 -58q71 0 71 48q0 29 -51 64l-86 59q-38 32 -51.5 57t-13.5 60q0 60 40 98q45 43 130 43
q35 0 111 -18zM146 559l-97 149h81l70 -84l70 84h81l-97 -149h-108z" />
    <glyph glyph-name="brokenbar" unicode="&#xa6;" horiz-adv-x="296" 
d="M99 -136v359h98v-359h-98zM99 402v359h98v-359h-98z" />
    <glyph glyph-name="Eth" unicode="&#xd0;" horiz-adv-x="612" 
d="M73 0v328h-73v63h73v299h185q143 0 215 -61q94 -79 94 -274q0 -215 -100 -297q-69 -58 -209 -58h-185zM204 328v-245h54q103 0 140 67q31 57 31 205q0 140 -29 191q-36 65 -142 65h-54v-220h111v-63h-111z" />
    <glyph glyph-name="eth" unicode="&#xf0;" 
d="M409 591l-54 -18q50 -46 83 -122q41 -95 41 -213q0 -249 -219 -249q-220 0 -220 249t207 249q49 0 87 -35l2 2q-26 44 -76 88l-108 -36l-15 46l71 23q-45 25 -66 35q-41 19 -69 22v3h189q21 -12 45 -28l87 29zM171 238q0 -98 14 -140q20 -62 75 -62q56 0 75 62
q13 41 13 140t-13 140q-19 62 -75 62q-55 0 -75 -62q-14 -42 -14 -140z" />
    <glyph glyph-name="Yacute" unicode="&#xdd;" horiz-adv-x="538" 
d="M198 0v323l-215 367h151l145 -253l150 253h126l-226 -367v-323h-131zM223 773l46 167h120l-83 -167h-83z" />
    <glyph glyph-name="yacute" unicode="&#xfd;" horiz-adv-x="445" 
d="M108 -214l71 207l-178 483h124l108 -325h2l111 325h98l-238 -690h-98zM176 559l46 167h120l-83 -167h-83z" />
    <glyph glyph-name="Thorn" unicode="&#xde;" horiz-adv-x="612" 
d="M70 0v690h131v-121h150q114 0 161 -36q60 -46 60 -173q0 -125 -60 -173q-49 -39 -161 -39h-150v-148h-131zM201 490v-263h102q67 0 99 25q39 31 39 108q0 79 -39 108q-30 22 -99 22h-102z" />
    <glyph glyph-name="thorn" unicode="&#xfe;" 
d="M59 -214v904h121v-294h2q46 91 129 91q169 0 169 -246q0 -252 -184 -252q-76 0 -114 75h-2v-278h-121zM186 241q0 -80 12 -119q19 -64 72 -64q79 0 79 183q0 171 -82 171q-81 0 -81 -171z" />
    <glyph glyph-name="minus" unicode="&#xad;" horiz-adv-x="593" 
d="M59 209v91h476v-91h-476z" />
    <glyph glyph-name="minus" unicode="&#x2212;" horiz-adv-x="593" 
d="M59 209v91h476v-91h-476z" />
    <glyph glyph-name="multiply" unicode="&#xd7;" horiz-adv-x="593" 
d="M125 0l-65 71l166 176l-166 168l65 72l171 -171l168 171l68 -72l-169 -168l169 -176l-68 -71l-168 175z" />
    <glyph glyph-name="onesuperior" unicode="&#xb9;" horiz-adv-x="389" 
d="M163 202v364l-80 -48v57l97 59h68v-432h-85z" />
    <glyph glyph-name="twosuperior" unicode="&#xb2;" horiz-adv-x="389" 
d="M38 202v60q64 53 115 113q87 101 87 169q0 25 -16 42.5t-42 17.5q-27 0 -40.5 -20.5t-13.5 -48.5h-90q11 110 146 110q60 0 99 -27q46 -32 46 -91q0 -123 -201 -263v-2h202v-60h-292z" />
    <glyph glyph-name="threesuperior" unicode="&#xb3;" horiz-adv-x="389" 
d="M133 543h-92q3 44 41 73t104 29q137 0 137 -113q0 -82 -73 -100v-2q81 -17 81 -108q0 -127 -151 -127q-141 0 -149 104h97q0 -63 54 -63q60 0 60 79q0 60 -23 79q-16 13 -63 14v45q37 0 53 11q25 16 25 65q0 75 -54 75q-47 0 -47 -61z" />
    <glyph glyph-name="onehalf" unicode="&#xbd;" horiz-adv-x="890" 
d="M152 202v364l-80 -48v57l97 59h68v-432h-85zM256 0l232 634h76l-232 -634h-76zM527 0v60q64 53 114 112q87 101 87 167q0 24 -16 42t-41 18q-27 0 -40.5 -20.5t-13.5 -48.5h-90q11 110 146 110q59 0 99 -28q45 -32 45 -90q0 -78 -83 -163q-25 -26 -117 -97v-2h202v-60
h-292z" />
    <glyph glyph-name="onequarter" unicode="&#xbc;" horiz-adv-x="890" 
d="M131 202v364l-80 -48v57l97 59h68v-432h-85zM246 0l232 634h76l-232 -634h-76zM689 0v108h-197v55l183 270h90v-265h74v-60h-74v-108h-76zM687 359l-119 -191h121v191h-2z" />
    <glyph glyph-name="threequarters" unicode="&#xbe;" horiz-adv-x="890" 
d="M722 0v108h-198v55l184 270h90v-265h73v-60h-73v-108h-76zM720 359l-120 -191h122v191h-2zM133 543h-92q2 42 39 71q41 31 106 31q137 0 137 -113q0 -82 -73 -98v-2q81 -17 81 -110q0 -127 -151 -127q-77 0 -116 34q-33 27 -33 70h97q0 -63 54 -63q60 0 60 79
q0 61 -23 81q-16 13 -63 14v45q39 0 55 11q23 15 23 64q0 74 -54 74q-47 0 -47 -61zM301 0l232 634h77l-233 -634h-76z" />
    <glyph glyph-name="glyph217" horiz-adv-x="297" 
 />
    <glyph glyph-name="fraction" unicode="&#x2044;" horiz-adv-x="261" 
d="M-18 0l232 634h76l-232 -634h-76z" />
    <glyph glyph-name="fi" unicode="&#xf001;" horiz-adv-x="612" 
d="M107 0v418h-85v58h85v39q0 82 32 125q45 61 159 61q49 0 100 -11v-79q-44 22 -81 22q-89 0 -89 -100v-57h133v-58h-133v-418h-121zM423 0v476h121v-476h-121zM423 580v110h121v-110h-121z" />
    <glyph glyph-name="fl" unicode="&#xf002;" horiz-adv-x="612" 
d="M107 0v418h-85v58h85v39q0 82 32 125q45 61 159 61q49 0 100 -11v-79q-44 22 -81 22q-89 0 -89 -100v-57h133v-58h-133v-418h-121zM421 0v690h121v-690h-121z" />
    <glyph glyph-name="breve" unicode="&#x2d8;" horiz-adv-x="335" 
d="M251 712h68q-10 -153 -152 -153q-78 0 -118 49q-32 40 -34 104h68q3 -27 21 -47q23 -27 63 -27t63 28q17 20 21 46z" />
    <glyph glyph-name="dotaccent" unicode="&#x2d9;" horiz-adv-x="335" 
d="M106 570v111h123v-111h-123z" />
    <glyph glyph-name="ring" unicode="&#x2da;" horiz-adv-x="335" 
d="M168 559q-41 0 -71 29.5t-30 70.5q0 43 30 72t71 29t70.5 -30t29.5 -71t-29.5 -70.5t-70.5 -29.5zM124 659q0 -18 13 -30.5t31 -12.5q17 0 30 13t13 30q0 18 -13 31t-30 13q-18 0 -31 -13t-13 -31z" />
    <glyph glyph-name="hungarumlaut" unicode="&#x2dd;" horiz-adv-x="335" 
d="M30 559l45 167h121l-83 -167h-83zM189 559l46 167h120l-83 -167h-83z" />
    <glyph glyph-name="ogonek" unicode="&#x2db;" horiz-adv-x="335" 
d="M305 -176v-62q-29 -11 -66 -11q-47 0 -79 28.5t-32 71.5t29 89q25 39 59 67h58q-67 -67 -67 -130q0 -27 14.5 -47t40.5 -20q19 0 43 14z" />
    <glyph glyph-name="caron" unicode="&#x2c7;" horiz-adv-x="335" 
d="M113 559l-97 149h81l70 -84l70 84h81l-97 -149h-108z" />
    <glyph glyph-name="Lslash" unicode="&#x141;" horiz-adv-x="463" 
d="M75 0v258l-75 -59v78l75 59v354h131v-251l133 104v-78l-133 -104v-278h257v-83h-388z" />
    <glyph glyph-name="dotlessi" unicode="&#x131;" horiz-adv-x="260" 
d="M69 0v476h121v-476h-121z" />
    <glyph glyph-name="lslash" unicode="&#x142;" horiz-adv-x="260" 
d="M69 0v273l-69 -55v69l69 55v348h121v-253l70 55v-69l-70 -55v-368h-121z" />
    <glyph glyph-name="zcaron" unicode="&#x17e;" horiz-adv-x="389" 
d="M17 0v77l214 330h-201v69h332v-69l-214 -330h224v-77h-355zM140 559l-97 149h81l70 -84l70 84h81l-97 -149h-108z" />
    <glyph glyph-name="Zcaron" unicode="&#x17d;" horiz-adv-x="501" 
d="M17 0v83l302 528h-285v79h434v-79l-299 -528h314v-83h-466zM196 773l-97 149h81l70 -84l70 84h81l-97 -149h-108z" />
    </font>
</defs>
</svg>
