<?xml version="1.0" standalone="no"?>
<!DOCTYPE svg PUBLIC "-//W3C//DTD SVG 1.1//EN" "http://www.w3.org/Graphics/SVG/1.1/DTD/svg11.dtd" >
<svg>
<metadata>
Created by FontForge 20090622 at Tue Nov 19 08:06:28 2019
 By deploy user
Copyright (c) 1990 Adobe Systems Incorporated.  All Rights Reserved.Rotis is a trademark of Agfa Corporation.
</metadata>
<defs>
<font id="RotisSemiSans-LightItalic" horiz-adv-x="481" >
  <font-face 
    font-family="RotisSemiSans Light"
    font-weight="300"
    font-style="italic"
    font-stretch="normal"
    units-per-em="1000"
    panose-1="0 0 4 0 0 0 0 0 0 0"
    ascent="800"
    descent="-200"
    x-height="476"
    cap-height="690"
    bbox="-73 -235 1136 932"
    underline-thickness="50"
    underline-position="-75"
    slope="-11"
    unicode-range="U+0020-U+F002"
  />
<missing-glyph horiz-adv-x="500" 
d="M63 0v766h375v-766h-375zM125 63h250v641h-250v-641z" />
    <glyph glyph-name=".notdef" horiz-adv-x="500" 
d="M63 0v766h375v-766h-375zM125 63h250v641h-250v-641z" />
    <glyph glyph-name=".null" horiz-adv-x="0" 
 />
    <glyph glyph-name="nonmarkingreturn" horiz-adv-x="241" 
 />
    <glyph glyph-name="space" unicode=" " horiz-adv-x="241" 
 />
    <glyph glyph-name="exclam" unicode="!" horiz-adv-x="259" 
d="M177 179l88 511h72l-109 -511h-51zM127 0l15 80h80l-15 -80h-80z" />
    <glyph glyph-name="quotedbl" unicode="&#x22;" horiz-adv-x="315" 
d="M166 484l25 206h72l-55 -206h-42zM296 484l25 206h72l-55 -206h-42z" />
    <glyph glyph-name="numbersign" unicode="#" horiz-adv-x="574" 
d="M109 0l102 225h-107l19 44h108l43 94h-108l20 44h108l104 227h51l-103 -227h86l103 227h51l-103 -227h111l-21 -44h-111l-42 -94h112l-21 -44h-111l-102 -225h-51l102 225h-86l-103 -225h-51zM325 363l-42 -94h86l43 94h-87z" />
    <glyph glyph-name="dollar" unicode="$" horiz-adv-x="519" 
d="M217 -89l16 80q-148 16 -148 142h72q0 -47 21 -70q18 -21 62 -32l57 292q-140 33 -140 146q0 88 65 145q58 51 143 56l13 71h42l-13 -71q71 0 112 -44q35 -39 35 -94h-71q0 93 -84 100l-53 -275q149 -47 149 -159q0 -98 -69 -156q-61 -51 -151 -51l-16 -80h-42zM306 370
l51 260q-59 -3 -95.5 -47t-36.5 -105q0 -77 81 -108zM336 308l-54 -279q64 5 104.5 49.5t40.5 110.5q0 82 -91 119z" />
    <glyph glyph-name="percent" unicode="%" horiz-adv-x="778" 
d="M206 199q-54 0 -82.5 38t-28.5 98q0 104 35 188q51 122 159 122q109 0 109 -132q0 -115 -36 -198q-50 -116 -156 -116zM148 345q0 -106 65 -106q69 0 106 111q26 78 26 151q0 104 -65 104q-68 0 -106 -116q-26 -80 -26 -144zM612 -11q-54 0 -84 39q-27 36 -27 97
q0 105 35 188q50 122 158 122q53 0 81.5 -35t28.5 -97q0 -115 -36 -198q-50 -116 -156 -116zM554 135q0 -106 64 -106q69 0 107 111q26 78 26 151q0 104 -65 104q-68 0 -106 -116q-26 -80 -26 -144zM267 0l321 634h47l-320 -634h-48z" />
    <glyph glyph-name="ampersand" unicode="&#x26;" horiz-adv-x="611" 
d="M355 45l-9 -45q-51 -11 -86 -11q-179 0 -179 142q0 170 147 228q-80 29 -80 108t62 137q65 62 166 62q48 0 97 -13l-9 -45q-54 18 -93 18q-70 0 -118 -48q-44 -45 -44 -103q0 -98 139 -98h164l31 157l62 38l-38 -195h109l-8 -41h-109l-31 -163q-15 -79 -15 -90
q0 -54 62 -54q16 0 36 5l-7 -37q-32 -8 -49 -8q-99 0 -99 82q0 11 13 80l35 185h-156q-199 0 -199 -195q0 -54 41 -85q36 -27 83 -27q38 0 82 16z" />
    <glyph glyph-name="quotesingle" unicode="'" horiz-adv-x="185" 
d="M166 484l25 206h72l-55 -206h-42z" />
    <glyph glyph-name="parenleft" unicode="(" horiz-adv-x="259" 
d="M208 -103l-8 -40q-100 31 -100 183q0 71 24 209q27 153 66 285q65 218 187 234l-7 -39q-81 -23 -135 -244q-32 -132 -54.5 -264.5t-22.5 -188.5q0 -99 50 -135z" />
    <glyph glyph-name="parenright" unicode=")" horiz-adv-x="259" 
d="M5 -143l7 39q81 23 135 244q32 131 55 265q22 131 22 187q0 100 -50 136l8 40q100 -34 100 -183q0 -70 -24 -209q-27 -153 -66 -286q-64 -216 -187 -233z" />
    <glyph glyph-name="asterisk" unicode="*" horiz-adv-x="315" 
d="M186 430l-32 29l72 82l-108 21l8 41l108 -21l-36 104l42 15l36 -103l72 81l32 -28l-73 -83l106 -21l-8 -41l-105 21l36 -103l-42 -15l-35 104z" />
    <glyph glyph-name="plus" unicode="+" horiz-adv-x="574" 
d="M304 0v212h-198v50h198v200h53v-200h204v-50h-204v-212h-53z" />
    <glyph glyph-name="comma" unicode="," horiz-adv-x="185" 
d="M26 -133l53 216h72l-72 -216h-53z" />
    <glyph glyph-name="hyphen" unicode="-" horiz-adv-x="389" 
d="M99 215l11 56h275l-11 -56h-275z" />
    <glyph glyph-name="hyphen" unicode="&#x2010;" horiz-adv-x="389" 
d="M99 215l11 56h275l-11 -56h-275z" />
    <glyph glyph-name="period" unicode="." horiz-adv-x="185" 
d="M51 0l16 83h83l-16 -83h-83z" />
    <glyph glyph-name="slash" unicode="/" horiz-adv-x="278" 
d="M-2 -136l347 897h57l-348 -897h-56z" />
    <glyph glyph-name="zero" unicode="0" 
d="M239 -11q-79 0 -121 57q-40 53 -40 141q0 161 55 285q76 173 233 173q79 0 120 -50t41 -141q0 -170 -53 -293q-75 -172 -235 -172zM146 202q0 -168 101 -168q111 0 170 169q42 119 42 233q0 72 -25 116q-27 48 -77 48q-111 0 -170 -166q-41 -116 -41 -232z" />
    <glyph glyph-name="one" unicode="1" 
d="M245 0l111 568l-130 -81l12 62l141 85h51l-123 -634h-62z" />
    <glyph glyph-name="two" unicode="2" 
d="M62 0l10 51q112 91 204 188q164 172 164 268q0 38 -21 63q-25 30 -72 30q-86 0 -116 -105h-72q38 150 200 150q73 0 113 -40q36 -37 36 -94q0 -83 -78 -187q-57 -77 -158 -167l-126 -106h284l-10 -51h-358z" />
    <glyph glyph-name="three" unicode="3" 
d="M225 511h-73q12 54 56 90q53 44 138 44q147 0 147 -137q0 -86 -54 -135q-39 -36 -88 -41v-2q94 -19 94 -122q0 -109 -69 -168q-60 -51 -150 -51q-156 0 -156 138h72q0 -92 89 -92q65 0 105.5 45.5t40.5 123.5q0 101 -115 101l10 49h13q61 0 100.5 40.5t39.5 107.5
q0 43 -24.5 70.5t-62.5 27.5q-58 0 -88 -35q-12 -16 -25 -54z" />
    <glyph glyph-name="four" unicode="4" 
d="M298 0l36 188h-250l9 51l324 395h64l-76 -395h113l-10 -51h-112l-36 -188h-62zM400 542l-244 -303h188l58 301z" />
    <glyph glyph-name="five" unicode="5" 
d="M279 588l-60 -238l2 -2q25 32 106 32q72 0 115 -42q39 -39 39 -97q0 -115 -63.5 -183.5t-170.5 -68.5q-157 0 -157 137h72q0 -91 94 -91q75 0 119 62q38 53 38 127q0 51 -28.5 80.5t-73.5 29.5q-72 0 -106 -53h-57l86 353h293l-9 -46h-239z" />
    <glyph glyph-name="six" unicode="6" 
d="M526 507h-72q0 93 -83 93q-94 0 -153 -135q-25 -57 -49 -170l2 -2q14 27 48 51q50 36 112 36q69 0 109 -46q36 -41 36 -106q0 -99 -56 -166q-61 -73 -165 -73q-161 0 -161 200q0 138 50 264q75 192 233 192q73 0 111 -38t38 -100zM155 164q0 -54 24 -89q28 -41 84 -41
q68 0 109 65q36 56 36 124q0 51 -27 81t-68 30q-68 0 -113 -49t-45 -121z" />
    <glyph glyph-name="seven" unicode="7" 
d="M111 0l357 583h-287l9 51h356l-9 -51l-355 -583h-71z" />
    <glyph glyph-name="eight" unicode="8" 
d="M250 -11q-84 0 -129 44q-40 38 -40 100q0 82 49 135q43 46 112 59v2q-39 15 -54 29q-34 29 -34 84q0 85 57 142q60 61 158 61q59 0 99 -30q45 -35 45 -100q0 -154 -145 -186v-2q36 -8 62 -35q35 -35 35 -92q0 -89 -58 -149q-61 -62 -157 -62zM222 439q0 -37 21 -61
q23 -27 66 -27q67 0 104 51q32 45 32 108q0 41 -24 65.5t-66 24.5q-61 0 -98 -50q-35 -46 -35 -111zM149 139q0 -105 108 -105q68 0 106 51q34 46 34 115q0 46 -27 74t-75 28q-67 0 -109 -54q-37 -47 -37 -109z" />
    <glyph glyph-name="nine" unicode="9" 
d="M73 127h72q0 -93 82 -93q144 0 202 305l-2 2q-12 -26 -48 -51q-49 -35 -111 -35q-70 0 -109 45q-36 42 -36 107q0 98 56 165q61 73 164 73q162 0 162 -200q0 -129 -56 -264q-79 -192 -228 -192q-72 0 -110 38t-38 100zM191 411q0 -50 27 -80.5t67 -30.5q68 0 113.5 49.5
t45.5 121.5q0 54 -24 88q-28 41 -85 41q-68 0 -109 -65q-35 -55 -35 -124z" />
    <glyph glyph-name="colon" unicode=":" horiz-adv-x="241" 
d="M106 0l16 83h83l-16 -83h-83zM183 393l16 83h83l-16 -83h-83z" />
    <glyph glyph-name="semicolon" unicode=";" horiz-adv-x="241" 
d="M79 -133l54 216h72l-72 -216h-54zM185 393l16 83h83l-16 -83h-83z" />
    <glyph glyph-name="less" unicode="&#x3c;" horiz-adv-x="574" 
d="M580 0l-455 206v50l455 206v-50l-398 -181l398 -181v-50z" />
    <glyph glyph-name="equal" unicode="=" horiz-adv-x="574" 
d="M106 212h455v-50h-455v50zM106 312h455v-50h-455v50z" />
    <glyph glyph-name="greater" unicode="&#x3e;" horiz-adv-x="574" 
d="M119 0v50l398 181l-398 181v50l455 -206v-50z" />
    <glyph glyph-name="question" unicode="?" horiz-adv-x="389" 
d="M155 179l13 67q10 53 51 98l115 113q40 40 49 54q19 27 19 60q0 80 -95 80q-67 0 -133 -45l11 69q76 26 127 26q65 0 105 -30q46 -34 46 -98q0 -67 -77 -146l-127 -119q-36 -38 -48 -107l-4 -22h-52zM107 0l16 80h80l-16 -80h-80z" />
    <glyph glyph-name="at" unicode="@" horiz-adv-x="1000" 
d="M851 14l26 -23q-29 -35 -97 -70q-105 -54 -226 -54q-178 0 -295 93t-117 238q0 181 133.5 313.5t315.5 132.5q155 0 257.5 -91.5t102.5 -232.5q0 -129 -86.5 -224.5t-194.5 -95.5q-44 0 -60 26q-8 12 -12 45q-52 -65 -130 -65q-57 0 -95 37.5t-38 105.5q0 110 80 216
q83 111 179 111q81 0 116 -74l22 54h87l-84 -207q-60 -148 -60 -170q0 -27 29 -27q66 0 131 76q70 83 70 192q0 122 -90 200q-85 73 -205 73q-170 0 -289 -129q-111 -120 -111 -265q0 -125 95 -206t253 -81q110 0 207 47q33 16 86 55zM415 114q0 -67 69 -67q78 0 142 143
q52 116 52 183q0 25 -16.5 44.5t-45.5 19.5q-67 0 -136 -126q-65 -116 -65 -197z" />
    <glyph glyph-name="A" unicode="A" horiz-adv-x="537" 
d="M9 0l358 690h71l90 -690h-61l-31 229h-257l-119 -229h-51zM384 626l-182 -351h228l-44 351h-2z" />
    <glyph glyph-name="B" unicode="B" horiz-adv-x="519" 
d="M215 336l-56 -290h96q77 0 131.5 44t54.5 114q0 86 -59 114q-36 18 -122 18h-45zM88 0l134 690h110q96 0 144 -23q70 -33 70 -119q0 -69 -47.5 -122.5t-111.5 -60.5v-2q42 -6 75 -32q47 -39 47 -107q0 -97 -64 -159q-68 -65 -179 -65h-178zM275 644l-51 -262h45
q84 0 139 31q70 40 70 125q0 70 -50 93q-30 13 -108 13h-45z" />
    <glyph glyph-name="C" unicode="C" horiz-adv-x="519" 
d="M497 98l-13 -65q-79 -44 -175 -44q-100 0 -153 70q-48 65 -48 179q0 159 65 292q85 171 240 171q121 0 165 -71q26 -43 26 -126h-77q0 63 -14 95q-26 56 -100 56q-119 0 -185 -152q-52 -118 -52 -260q0 -89 39 -147q41 -61 106 -61q58 0 105 21q24 10 71 42z" />
    <glyph glyph-name="D" unicode="D" horiz-adv-x="574" 
d="M88 0l134 690h90q140 0 204 -38q86 -52 86 -191q0 -206 -92 -332q-94 -129 -251 -129h-171zM275 644l-117 -598h66q151 0 233 119q77 110 77 296q0 115 -65 155q-46 28 -158 28h-36z" />
    <glyph glyph-name="E" unicode="E" horiz-adv-x="444" 
d="M88 0l134 690h306l-9 -46h-244l-51 -260h232l-9 -46h-232l-56 -292h253l-9 -46h-315z" />
    <glyph glyph-name="F" unicode="F" horiz-adv-x="389" 
d="M88 0l134 690h306l-9 -46h-244l-51 -260h232l-9 -46h-232l-65 -338h-62z" />
    <glyph glyph-name="G" unicode="G" horiz-adv-x="593" 
d="M592 384l-64 -330q-72 -65 -212 -65q-208 0 -208 244q0 182 72 311q88 157 255 157q195 0 195 -199h-74q0 153 -128 153q-126 0 -195 -145q-57 -119 -57 -277q0 -198 161 -198q86 0 135 45l50 258h-173l9 46h234z" />
    <glyph glyph-name="H" unicode="H" horiz-adv-x="593" 
d="M88 0l134 690h62l-60 -310h292l61 310h62l-134 -690h-62l64 334h-292l-65 -334h-62z" />
    <glyph glyph-name="I" unicode="I" horiz-adv-x="241" 
d="M90 0l134 690h62l-134 -690h-62z" />
    <glyph glyph-name="J" unicode="J" horiz-adv-x="333" 
d="M388 690l-97 -497q-19 -99 -48 -138q-47 -66 -157 -66q-52 0 -85 14l13 66q44 -29 87 -29q67 0 95 44q17 27 33 109l97 497h62z" />
    <glyph glyph-name="K" unicode="K" horiz-adv-x="500" 
d="M90 0l134 690h62l-61 -311l2 -2l312 313h63l-327 -325l225 -365h-74l-208 339l-66 -339h-62z" />
    <glyph glyph-name="L" unicode="L" horiz-adv-x="389" 
d="M88 0l134 690h62l-126 -644h245l-9 -46h-306z" />
    <glyph glyph-name="M" unicode="M" horiz-adv-x="759" 
d="M87 0l125 690h105l79 -615h2l314 615h93l-136 -690h-61l126 635l-2 2l-324 -637h-60l-83 637h-2l-115 -637h-61z" />
    <glyph glyph-name="N" unicode="N" horiz-adv-x="611" 
d="M88 0l127 690h84l180 -619h2l120 619h61l-134 -690h-86l-179 614h-2l-111 -614h-62z" />
    <glyph glyph-name="O" unicode="O" horiz-adv-x="574" 
d="M291 -11q-185 0 -185 225q0 178 70 316q87 171 244 171q98 0 145 -69q39 -58 39 -158q0 -182 -69 -318q-86 -167 -244 -167zM174 225q0 -78 26 -128q32 -62 100 -62q115 0 182 155q54 127 54 282q0 73 -27 123q-33 60 -97 60q-115 0 -183 -157q-55 -127 -55 -273z" />
    <glyph glyph-name="P" unicode="P" 
d="M88 0l134 690h130q206 0 206 -157q0 -219 -272 -219h-75l-61 -314h-62zM275 644l-55 -284h59q93 0 136 21q75 37 75 146q0 75 -53 100q-36 17 -127 17h-35z" />
    <glyph glyph-name="Q" unicode="Q" horiz-adv-x="574" 
d="M568 0h-277q-94 0 -142 66q-43 59 -43 159q0 174 70 309q87 167 244 167q98 0 145 -69q39 -58 39 -158q0 -134 -44 -255q-52 -144 -143 -180l2 -2q57 6 82 10q46 7 79 18zM174 236q0 -73 31 -128q36 -62 95 -62q115 0 182 152q54 123 54 274q0 73 -27 123q-33 60 -97 60
q-115 0 -183 -153q-55 -123 -55 -266z" />
    <glyph glyph-name="R" unicode="R" horiz-adv-x="537" 
d="M88 0l134 690h138q80 0 131 -30q65 -39 65 -119q0 -174 -195 -200v-2q65 -13 87 -51q20 -34 20 -118l1 -170h-64l-1 182q0 76 -34 105t-127 29h-32l-61 -316h-62zM275 644l-55 -282h48q220 0 220 171q0 63 -44 89q-37 22 -114 22h-55z" />
    <glyph glyph-name="S" unicode="S" horiz-adv-x="463" 
d="M517 684l-14 -69q-85 40 -152 40t-106 -31q-42 -33 -42 -94t68 -107l125 -82q68 -57 68 -142q0 -90 -72.5 -150t-191.5 -60q-77 0 -155 18l15 70q84 -38 157 -38q77 0 128 42t51 113q0 60 -68 106l-125 78q-68 53 -68 129q0 95 75 148q65 46 167 46q74 0 140 -17z" />
    <glyph glyph-name="T" unicode="T" horiz-adv-x="389" 
d="M164 0l124 644h-163l9 46h388l-9 -46h-163l-125 -644h-61z" />
    <glyph glyph-name="U" unicode="U" horiz-adv-x="593" 
d="M645 690l-84 -434q-24 -126 -61 -178q-63 -89 -203 -89q-77 0 -124 39q-53 43 -53 125q0 36 13 103l84 434h62l-81 -421q-13 -68 -13 -109q0 -52 30 -86q34 -39 97 -39q96 0 140 71q26 42 47 150l84 434h62z" />
    <glyph glyph-name="V" unicode="V" horiz-adv-x="500" 
d="M215 0l-95 690h62l88 -625h2l321 625h59l-361 -690h-76z" />
    <glyph glyph-name="W" unicode="W" horiz-adv-x="796" 
d="M159 0l12 690h62l-11 -615l2 -2l271 617h75l38 -617h2l222 617h61l-256 -690h-84l-36 622h-2l-271 -622h-85z" />
    <glyph glyph-name="X" unicode="X" horiz-adv-x="500" 
d="M0 0l290 361l-130 329h61l110 -277l220 277h61l-262 -328l146 -362h-61l-124 309l-250 -309h-61z" />
    <glyph glyph-name="Y" unicode="Y" 
d="M208 0l61 317l-135 373h62l113 -314l244 314h61l-282 -373l-62 -317h-62z" />
    <glyph glyph-name="Z" unicode="Z" 
d="M27 0l8 46l456 598h-321l8 46h398l-8 -46l-456 -598h366l-8 -46h-443z" />
    <glyph glyph-name="bracketleft" unicode="[" horiz-adv-x="259" 
d="M65 -136l174 897h154l-9 -50h-97l-155 -797h97l-10 -50h-154z" />
    <glyph glyph-name="backslash" unicode="\" horiz-adv-x="278" 
d="M251 -136l-158 897h57l156 -897h-55z" />
    <glyph glyph-name="bracketright" unicode="]" horiz-adv-x="259" 
d="M-12 -136l10 50h97l154 797h-96l10 50h154l-174 -897h-155z" />
    <glyph glyph-name="asciicircum" unicode="^" horiz-adv-x="333" 
d="M157 537l86 153h59l84 -153h-53l-60 112l-63 -112h-53z" />
    <glyph glyph-name="underscore" unicode="_" horiz-adv-x="500" 
d="M0 -125v50h500v-50h-500z" />
    <glyph glyph-name="grave" unicode="`" horiz-adv-x="320" 
d="M223 559l-37 119h73l17 -119h-53z" />
    <glyph glyph-name="a" unicode="a" 
d="M349 0l17 88l-2 2q-14 -37 -43 -63q-41 -38 -98 -38q-68 0 -104 51q-32 44 -32 113q0 122 50 219q59 115 160 115q95 0 124 -109h2l19 98h55l-93 -476h-55zM148 158q0 -129 86 -129q70 0 119 89q44 80 44 169q0 63 -21 106q-26 54 -79 54q-68 0 -112 -103
q-37 -88 -37 -186z" />
    <glyph glyph-name="b" unicode="b" horiz-adv-x="463" 
d="M258 690l-60 -307l2 -2q51 106 141 106q64 0 98 -49q32 -45 32 -120q0 -136 -58 -227q-65 -102 -177 -102q-134 0 -134 148q0 35 22 148l79 405h55zM163 145q0 -48 18 -79q22 -37 63 -37q81 0 128 100q38 83 38 192q0 126 -77 126q-75 0 -126 -111q-44 -95 -44 -191z" />
    <glyph glyph-name="c" unicode="c" horiz-adv-x="407" 
d="M369 39l-8 -41q-45 -9 -89 -9q-89 0 -138 52q-48 49 -48 135q0 130 58 216q63 95 171 95q61 0 95 -30.5t34 -81.5q0 -14 -2 -40h-69q3 21 3 41q0 27 -17 49q-21 25 -57 25q-80 0 -122 -94q-33 -72 -33 -163q0 -77 41.5 -120.5t110.5 -43.5q32 0 70 10z" />
    <glyph glyph-name="d" unicode="d" 
d="M346 0l17 88l-2 2q-14 -37 -43 -63q-41 -38 -99 -38q-68 0 -104 51q-32 44 -32 113q0 122 50 219q59 115 160 115q97 0 126 -109h2l59 312h55l-134 -690h-55zM144 158q0 -129 86 -129q70 0 119 89q44 80 44 169q0 63 -21 106q-26 54 -79 54q-68 0 -112 -103
q-37 -88 -37 -186z" />
    <glyph glyph-name="e" unicode="e" horiz-adv-x="426" 
d="M386 40l-8 -41q-64 -10 -99 -10q-87 0 -138 46q-54 49 -54 141q0 120 52 208q61 103 169 103q68 0 107 -40q36 -37 36 -98q0 -9 -5 -52h-285q-13 -61 -13 -99q0 -77 42.5 -123t108.5 -46q34 0 87 11zM171 338h223q1 8 1 25q0 32 -18 56q-25 31 -76 31q-96 0 -130 -112z
" />
    <glyph glyph-name="f" unicode="f" horiz-adv-x="315" 
d="M119 0l85 435h-81l8 41h81l15 79q26 135 164 135q25 0 75 -10l-10 -47q-36 17 -83 17q-48 0 -71 -39q-15 -24 -25 -80l-10 -55h133l-8 -41h-133l-85 -435h-55z" />
    <glyph glyph-name="g" unicode="g" horiz-adv-x="482" 
d="M493 476l-87 -450q-18 -95 -55 -144q-60 -82 -180 -82q-70 0 -130 17l14 68q36 -26 57 -34q29 -11 75 -11q87 0 130 79q21 38 38 126l11 56l-2 2q-40 -103 -154 -103q-55 0 -89.5 47t-34.5 120q0 112 49 204q61 116 171 116q54 0 87 -40q24 -30 26 -62h2l17 91h55z
M147 171q0 -57 19 -91q22 -40 64 -40q68 0 121 91q45 79 45 153q0 163 -93 163q-74 0 -119 -103q-37 -84 -37 -173z" />
    <glyph glyph-name="h" unicode="h" horiz-adv-x="501" 
d="M83 0l134 690h55l-65 -329l2 -2q62 128 179 128q49 0 76 -32q24 -29 24 -72q0 -21 -6 -52l-64 -331h-55l57 291q12 61 12 76q0 70 -70 70q-76 0 -131 -90q-39 -63 -52 -133l-41 -214h-55z" />
    <glyph glyph-name="i" unicode="i" horiz-adv-x="222" 
d="M84 0l92 476h55l-92 -476h-55zM192 609l16 81h75l-16 -81h-75z" />
    <glyph glyph-name="j" unicode="j" horiz-adv-x="222" 
d="M-58 -200h-15l10 51q17 -5 46 -5q50 0 75 43q14 26 27 91l96 496h55l-96 -496q-18 -90 -44 -124q-45 -56 -154 -56zM197 609l16 81h76l-16 -81h-76z" />
    <glyph glyph-name="k" unicode="k" horiz-adv-x="407" 
d="M83 0l134 690h55l-84 -429l2 -2l220 217h60l-220 -215l148 -261h-67l-144 253l-49 -253h-55z" />
    <glyph glyph-name="l" unicode="l" horiz-adv-x="222" 
d="M84 0l134 690h55l-134 -690h-55z" />
    <glyph glyph-name="m" unicode="m" horiz-adv-x="742" 
d="M82 0l92 476h55l-23 -117l2 -2q18 43 54 79q51 51 113 51q48 0 73 -35q20 -27 20 -68v-13q-1 -9 -1 -13h2q20 45 52 78q50 51 112 51q50 0 76 -34q21 -28 21 -67q0 -19 -6 -50l-65 -336h-55l57 296q10 52 10 79q0 28 -16.5 45t-39.5 17q-66 0 -120 -87q-41 -66 -54 -131
l-43 -219h-55l57 296q10 52 10 75q0 66 -55 66q-64 0 -120 -86q-43 -67 -56 -132l-42 -219h-55z" />
    <glyph glyph-name="n" unicode="n" horiz-adv-x="501" 
d="M82 0l92 476h55l-23 -117l2 -2q18 42 55 79q54 51 117 51q57 0 86 -35q23 -27 23 -68q0 -15 -6 -46l-65 -338h-55l57 296q10 52 10 75q0 66 -69 66q-66 0 -124 -86q-46 -67 -58 -132l-42 -219h-55z" />
    <glyph glyph-name="o" unicode="o" horiz-adv-x="482" 
d="M244 -11q-76 0 -117 45t-41 124q0 139 53 225q63 104 190 104q69 0 113 -43q46 -46 46 -125q0 -133 -54 -223q-66 -107 -190 -107zM147 170q0 -61 27.5 -101t75.5 -40q92 0 140 102q37 78 37 180q0 136 -103 136q-85 0 -135 -93q-42 -80 -42 -184z" />
    <glyph glyph-name="p" unicode="p" horiz-adv-x="482" 
d="M42 -214l134 690h55l-18 -88l2 -2q14 37 43 63q41 38 98 38q68 0 104 -50q32 -45 32 -114q0 -122 -49 -218q-59 -116 -161 -116q-95 0 -124 109h-2l-59 -312h-55zM183 189q0 -63 20 -105q27 -55 80 -55q67 0 111 103q37 88 37 186q0 129 -86 129q-70 0 -119 -89
q-43 -80 -43 -169z" />
    <glyph glyph-name="q" unicode="q" 
d="M304 -214l59 302l-2 2q-14 -37 -43 -63q-41 -38 -98 -38q-68 0 -104 51q-32 44 -32 113q0 122 49 218q59 116 161 116q95 0 124 -109h2l18 98h55l-134 -690h-55zM145 158q0 -129 86 -129q70 0 119 89q44 80 44 169q0 63 -21 106q-26 54 -80 54q-67 0 -111 -103
q-37 -88 -37 -186z" />
    <glyph glyph-name="r" unicode="r" horiz-adv-x="315" 
d="M84 0l92 476h55l-20 -103l2 -2q54 115 168 116l-13 -70q-7 0 -20 1h-19q-62 0 -103 -69q-29 -49 -43 -122l-44 -227h-55z" />
    <glyph glyph-name="s" unicode="s" horiz-adv-x="370" 
d="M404 470l-13 -59q-61 36 -122 36q-46 0 -73 -22t-27 -58t53 -65l97 -53q53 -39 53 -101q0 -67 -49 -111q-53 -48 -147 -48q-70 0 -136 22l12 61q69 -43 129 -43q57 0 93.5 26t36.5 75q0 44 -53 75l-97 53q-53 36 -53 94q0 64 47.5 99.5t134.5 35.5q42 0 114 -17z" />
    <glyph glyph-name="t" unicode="t" horiz-adv-x="315" 
d="M303 35l-9 -43q-48 -3 -49 -3q-116 0 -116 91q0 25 6 55l61 300h-78l9 41h78l23 111l61 34l-29 -145h124l-8 -41h-125l-46 -231q-18 -90 -18 -115q0 -60 69 -60q26 0 47 6z" />
    <glyph glyph-name="u" unicode="u" horiz-adv-x="500" 
d="M360 0l23 117l-2 2q-49 -130 -169 -130q-56 0 -85 39q-22 31 -22 76q0 26 9 73l57 299h55l-58 -299q-8 -41 -8 -55q0 -37 20 -60t52 -23q67 0 122 86q42 65 55 132l43 219h55l-92 -476h-55z" />
    <glyph glyph-name="v" unicode="v" horiz-adv-x="426" 
d="M197 0l-94 476h57l78 -403h2l219 403h49l-258 -476h-53z" />
    <glyph glyph-name="w" unicode="w" horiz-adv-x="667" 
d="M167 0l-30 476h56l25 -396h2l190 396h40l45 -396h2l170 396h49l-206 -476h-53l-44 397h-2l-190 -397h-54z" />
    <glyph glyph-name="x" unicode="x" horiz-adv-x="407" 
d="M13 0l211 249l-101 227h59l81 -180l152 180h59l-189 -227l110 -249h-59l-92 203l-172 -203h-59z" />
    <glyph glyph-name="y" unicode="y" horiz-adv-x="426" 
d="M103 -184l101 189l-101 471h58l85 -394l212 394h50l-355 -660h-50z" />
    <glyph glyph-name="z" unicode="z" horiz-adv-x="389" 
d="M24 0l9 46l336 384h-242l9 46h318l-5 -27l-346 -403h276l-8 -46h-347z" />
    <glyph glyph-name="braceleft" unicode="{" 
d="M452 -210v-25q-80 3 -143 50q-68 51 -68 120q0 36 12 96q16 80 16 94q0 44 -34 80q-30 32 -76 47v24q110 35 110 127q0 14 -16 94q-12 60 -12 96q0 69 68 120q63 47 143 50v-25q-52 -12 -81 -53q-26 -36 -26 -83q0 -29 7 -85t7 -79q0 -72 -59 -121q-31 -26 -96 -53
q64 -28 96 -55q59 -50 59 -119q0 -23 -7 -79t-7 -85q0 -47 26 -83q29 -41 81 -53z" />
    <glyph glyph-name="bar" unicode="|" horiz-adv-x="333" 
d="M151 -136v897h52v-897h-52z" />
    <glyph glyph-name="braceright" unicode="}" 
d="M147 -235v25q52 12 81 53q26 36 26 83q0 29 -7 85t-7 79q0 69 59 119q32 27 96 55q-65 27 -96 53q-59 49 -59 121q0 23 7 79t7 85q0 47 -26 83q-29 41 -81 53v25q80 -3 143 -50q68 -51 68 -120q0 -36 -12 -96q-16 -80 -16 -94q0 -92 110 -127v-24q-46 -15 -76 -47
q-34 -36 -34 -80q0 -14 16 -94q12 -60 12 -96q0 -69 -68 -120q-63 -47 -143 -50z" />
    <glyph glyph-name="asciitilde" unicode="~" horiz-adv-x="574" 
d="M90 163l7 36q10 52 40 87q39 46 99 46q38 0 79 -45l70 -77q19 -20 25 -25q14 -10 34 -10q55 0 76 98l5 23h49l-4 -26q-22 -146 -139 -146q-30 0 -51 14q-10 7 -31 30l-73 82q-19 21 -24 25q-11 8 -30 8q-61 0 -77 -87l-6 -33h-49z" />
    <glyph glyph-name="Adieresis" unicode="&#xc4;" horiz-adv-x="537" 
d="M9 0l358 690h71l90 -690h-61l-31 229h-257l-119 -229h-51zM384 626l-182 -351h228l-44 351h-2zM287 784l16 78h74l-15 -78h-75zM451 784l15 78h74l-15 -78h-74z" />
    <glyph glyph-name="Aring" unicode="&#xc5;" horiz-adv-x="537" 
d="M9 0l358 690h71l90 -690h-61l-31 229h-257l-119 -229h-51zM384 626l-182 -351h228l-44 351h-2zM421 773q-33 0 -56 23.5t-23 55.5q0 33 23 56.5t56 23.5q32 0 55.5 -23.5t23.5 -56.5q0 -32 -23.5 -55.5t-55.5 -23.5zM377 852q0 -19 12.5 -31.5t31.5 -12.5q18 0 31 12.5
t13 31.5t-12.5 32t-31.5 13t-31.5 -13.5t-12.5 -31.5z" />
    <glyph glyph-name="Ccedilla" unicode="&#xc7;" horiz-adv-x="519" 
d="M209 -89l32 89q-133 42 -133 238q0 159 65 292q85 171 240 171q121 0 165 -71q26 -43 26 -126h-77q0 63 -14 95q-26 56 -100 56q-119 0 -185 -152q-52 -118 -52 -260q0 -89 39 -147q41 -61 106 -61q58 0 105 21q24 10 71 42l-13 -65q-79 -44 -175 -44q-18 0 -35 3
l-20 -52q80 -3 80 -57q0 -39 -31 -68t-78 -29q-31 0 -56 11l8 42q24 -20 50 -20q21 0 39 15.5t18 40.5q0 36 -75 36z" />
    <glyph glyph-name="Eacute" unicode="&#xc9;" horiz-adv-x="444" 
d="M88 0l134 690h306l-9 -46h-244l-51 -260h232l-9 -46h-232l-56 -292h253l-9 -46h-315zM341 773l64 119h74l-84 -119h-54z" />
    <glyph glyph-name="Ntilde" unicode="&#xd1;" horiz-adv-x="611" 
d="M88 0l127 690h84l180 -619h2l120 619h61l-134 -690h-86l-179 614h-2l-111 -614h-62zM355 773v0h-35q28 100 73 100q18 0 51.5 -23t47.5 -23q23 0 33 43h35q-25 -97 -76 -97q-18 0 -54.5 22t-43.5 22q-16 0 -31 -44z" />
    <glyph glyph-name="Odieresis" unicode="&#xd6;" horiz-adv-x="574" 
d="M291 -11q-185 0 -185 225q0 178 70 316q87 171 244 171q98 0 145 -69q39 -58 39 -158q0 -182 -69 -318q-86 -167 -244 -167zM174 225q0 -78 26 -128q32 -62 100 -62q115 0 182 155q54 127 54 282q0 73 -27 123q-33 60 -97 60q-115 0 -183 -157q-55 -127 -55 -273z
M285 784l16 78h74l-15 -78h-75zM449 784l15 78h74l-15 -78h-74z" />
    <glyph glyph-name="Udieresis" unicode="&#xdc;" horiz-adv-x="593" 
d="M645 690l-84 -434q-24 -126 -61 -178q-63 -89 -203 -89q-77 0 -124 39q-53 43 -53 125q0 36 13 103l84 434h62l-81 -421q-13 -68 -13 -109q0 -52 30 -86q34 -39 97 -39q96 0 140 71q26 42 47 150l84 434h62zM325 784l16 78h74l-15 -78h-75zM489 784l15 78h74l-15 -78h-74
z" />
    <glyph glyph-name="aacute" unicode="&#xe1;" 
d="M349 0l17 88l-2 2q-14 -37 -43 -63q-41 -38 -98 -38q-68 0 -104 51q-32 44 -32 113q0 122 50 219q59 115 160 115q95 0 124 -109h2l19 98h55l-93 -476h-55zM148 158q0 -129 86 -129q70 0 119 89q44 80 44 169q0 63 -21 106q-26 54 -79 54q-68 0 -112 -103
q-37 -88 -37 -186zM305 559l64 119h74l-84 -119h-54z" />
    <glyph glyph-name="agrave" unicode="&#xe0;" 
d="M349 0l17 88l-2 2q-14 -37 -43 -63q-41 -38 -98 -38q-68 0 -104 51q-32 44 -32 113q0 122 50 219q59 115 160 115q95 0 124 -109h2l19 98h55l-93 -476h-55zM148 158q0 -129 86 -129q70 0 119 89q44 80 44 169q0 63 -21 106q-26 54 -79 54q-68 0 -112 -103
q-37 -88 -37 -186zM314 559l-37 119h73l17 -119h-53z" />
    <glyph glyph-name="acircumflex" unicode="&#xe2;" 
d="M349 0l17 88l-2 2q-14 -37 -43 -63q-41 -38 -98 -38q-68 0 -104 51q-32 44 -32 113q0 122 50 219q59 115 160 115q95 0 124 -109h2l19 98h55l-93 -476h-55zM148 158q0 -129 86 -129q70 0 119 89q44 80 44 169q0 63 -21 106q-26 54 -79 54q-68 0 -112 -103
q-37 -88 -37 -186zM241 559l109 119h58l61 -119h-52l-46 74l-78 -74h-52z" />
    <glyph glyph-name="adieresis" unicode="&#xe4;" 
d="M349 0l17 88l-2 2q-14 -37 -43 -63q-41 -38 -98 -38q-68 0 -104 51q-32 44 -32 113q0 122 50 219q59 115 160 115q95 0 124 -109h2l19 98h55l-93 -476h-55zM148 158q0 -129 86 -129q70 0 119 89q44 80 44 169q0 63 -21 106q-26 54 -79 54q-68 0 -112 -103
q-37 -88 -37 -186zM229 570l16 78h74l-15 -78h-75zM393 570l15 78h74l-15 -78h-74z" />
    <glyph glyph-name="atilde" unicode="&#xe3;" 
d="M349 0l17 88l-2 2q-14 -37 -43 -63q-41 -38 -98 -38q-68 0 -104 51q-32 44 -32 113q0 122 50 219q59 115 160 115q95 0 124 -109h2l19 98h55l-93 -476h-55zM148 158q0 -129 86 -129q70 0 119 89q44 80 44 169q0 63 -21 106q-26 54 -79 54q-68 0 -112 -103
q-37 -88 -37 -186zM270 559v0h-35q28 100 73 100q18 0 51.5 -23t47.5 -23q23 0 33 43h35q-25 -97 -76 -97q-18 0 -54.5 22t-43.5 22q-16 0 -31 -44z" />
    <glyph glyph-name="aring" unicode="&#xe5;" 
d="M349 0l17 88l-2 2q-14 -37 -43 -63q-41 -38 -98 -38q-68 0 -104 51q-32 44 -32 113q0 122 50 219q59 115 160 115q95 0 124 -109h2l19 98h55l-93 -476h-55zM148 158q0 -129 86 -129q70 0 119 89q44 80 44 169q0 63 -21 106q-26 54 -79 54q-68 0 -112 -103
q-37 -88 -37 -186zM358 559q-33 0 -56 23.5t-23 55.5q0 33 23 56.5t56 23.5q32 0 55.5 -23.5t23.5 -56.5q0 -32 -23.5 -55.5t-55.5 -23.5zM314 638q0 -19 12.5 -31.5t31.5 -12.5q18 0 31 12.5t13 31.5t-12.5 32t-31.5 13t-31.5 -13.5t-12.5 -31.5z" />
    <glyph glyph-name="ccedilla" unicode="&#xe7;" horiz-adv-x="407" 
d="M153 -89l34 94q-101 42 -101 171q0 130 58 216q63 95 171 95q61 0 95 -30.5t34 -81.5q0 -14 -2 -40h-69q3 21 3 41q0 27 -17 49q-21 25 -57 25q-80 0 -122 -94q-33 -72 -33 -163q0 -77 41.5 -120.5t110.5 -43.5q32 0 70 10l-8 -41q-45 -9 -89 -9q-30 0 -53 6l-21 -55
q80 -3 80 -57q0 -39 -31 -68t-78 -29q-31 0 -56 11l8 42q24 -20 50 -20q21 0 39 15.5t18 40.5q0 36 -75 36z" />
    <glyph glyph-name="eacute" unicode="&#xe9;" horiz-adv-x="426" 
d="M386 40l-8 -41q-64 -10 -99 -10q-87 0 -138 46q-54 49 -54 141q0 120 52 208q61 103 169 103q68 0 107 -40q36 -37 36 -98q0 -9 -5 -52h-285q-13 -61 -13 -99q0 -77 42.5 -123t108.5 -46q34 0 87 11zM171 338h223q1 8 1 25q0 32 -18 56q-25 31 -76 31q-96 0 -130 -112z
M277 559l64 119h74l-84 -119h-54z" />
    <glyph glyph-name="egrave" unicode="&#xe8;" horiz-adv-x="426" 
d="M386 40l-8 -41q-64 -10 -99 -10q-87 0 -138 46q-54 49 -54 141q0 120 52 208q61 103 169 103q68 0 107 -40q36 -37 36 -98q0 -9 -5 -52h-285q-13 -61 -13 -99q0 -77 42.5 -123t108.5 -46q34 0 87 11zM171 338h223q1 8 1 25q0 32 -18 56q-25 31 -76 31q-96 0 -130 -112z
M286 559l-37 119h73l17 -119h-53z" />
    <glyph glyph-name="ecircumflex" unicode="&#xea;" horiz-adv-x="426" 
d="M386 40l-8 -41q-64 -10 -99 -10q-87 0 -138 46q-54 49 -54 141q0 120 52 208q61 103 169 103q68 0 107 -40q36 -37 36 -98q0 -9 -5 -52h-285q-13 -61 -13 -99q0 -77 42.5 -123t108.5 -46q34 0 87 11zM171 338h223q1 8 1 25q0 32 -18 56q-25 31 -76 31q-96 0 -130 -112z
M203 559l109 119h58l61 -119h-52l-46 74l-78 -74h-52z" />
    <glyph glyph-name="edieresis" unicode="&#xeb;" horiz-adv-x="426" 
d="M386 40l-8 -41q-64 -10 -99 -10q-87 0 -138 46q-54 49 -54 141q0 120 52 208q61 103 169 103q68 0 107 -40q36 -37 36 -98q0 -9 -5 -52h-285q-13 -61 -13 -99q0 -77 42.5 -123t108.5 -46q34 0 87 11zM171 338h223q1 8 1 25q0 32 -18 56q-25 31 -76 31q-96 0 -130 -112z
M191 570l16 78h74l-15 -78h-75zM355 570l15 78h74l-15 -78h-74z" />
    <glyph glyph-name="iacute" unicode="&#xed;" horiz-adv-x="222" 
d="M84 0l92 476h55l-92 -476h-55zM175 559l64 119h74l-84 -119h-54z" />
    <glyph glyph-name="igrave" unicode="&#xec;" horiz-adv-x="222" 
d="M84 0l92 476h55l-92 -476h-55zM174 559l-37 119h73l17 -119h-53z" />
    <glyph glyph-name="icircumflex" unicode="&#xee;" horiz-adv-x="222" 
d="M84 0l92 476h55l-92 -476h-55zM101 559l109 119h58l61 -119h-52l-46 74l-78 -74h-52z" />
    <glyph glyph-name="idieresis" unicode="&#xef;" horiz-adv-x="222" 
d="M84 0l92 476h55l-92 -476h-55zM89 570l16 78h74l-15 -78h-75zM253 570l15 78h74l-15 -78h-74z" />
    <glyph glyph-name="ntilde" unicode="&#xf1;" horiz-adv-x="501" 
d="M82 0l92 476h55l-23 -117l2 -2q18 42 55 79q54 51 117 51q57 0 86 -35q23 -27 23 -68q0 -15 -6 -46l-65 -338h-55l57 296q10 52 10 75q0 66 -69 66q-66 0 -124 -86q-46 -67 -58 -132l-42 -219h-55zM270 559v0h-35q28 100 73 100q18 0 51.5 -23t47.5 -23q23 0 33 43h35
q-25 -97 -76 -97q-18 0 -54.5 22t-43.5 22q-16 0 -31 -44z" />
    <glyph glyph-name="oacute" unicode="&#xf3;" horiz-adv-x="482" 
d="M244 -11q-76 0 -117 45t-41 124q0 139 53 225q63 104 190 104q69 0 113 -43q46 -46 46 -125q0 -133 -54 -223q-66 -107 -190 -107zM147 170q0 -61 27.5 -101t75.5 -40q92 0 140 102q37 78 37 180q0 136 -103 136q-85 0 -135 -93q-42 -80 -42 -184zM305 559l64 119h74
l-84 -119h-54z" />
    <glyph glyph-name="ograve" unicode="&#xf2;" horiz-adv-x="482" 
d="M244 -11q-76 0 -117 45t-41 124q0 139 53 225q63 104 190 104q69 0 113 -43q46 -46 46 -125q0 -133 -54 -223q-66 -107 -190 -107zM147 170q0 -61 27.5 -101t75.5 -40q92 0 140 102q37 78 37 180q0 136 -103 136q-85 0 -135 -93q-42 -80 -42 -184zM304 559l-37 119h73
l17 -119h-53z" />
    <glyph glyph-name="ocircumflex" unicode="&#xf4;" horiz-adv-x="482" 
d="M244 -11q-76 0 -117 45t-41 124q0 139 53 225q63 104 190 104q69 0 113 -43q46 -46 46 -125q0 -133 -54 -223q-66 -107 -190 -107zM147 170q0 -61 27.5 -101t75.5 -40q92 0 140 102q37 78 37 180q0 136 -103 136q-85 0 -135 -93q-42 -80 -42 -184zM231 559l109 119h58
l61 -119h-52l-46 74l-78 -74h-52z" />
    <glyph glyph-name="odieresis" unicode="&#xf6;" horiz-adv-x="482" 
d="M244 -11q-76 0 -117 45t-41 124q0 139 53 225q63 104 190 104q69 0 113 -43q46 -46 46 -125q0 -133 -54 -223q-66 -107 -190 -107zM147 170q0 -61 27.5 -101t75.5 -40q92 0 140 102q37 78 37 180q0 136 -103 136q-85 0 -135 -93q-42 -80 -42 -184zM219 570l16 78h74
l-15 -78h-75zM383 570l15 78h74l-15 -78h-74z" />
    <glyph glyph-name="otilde" unicode="&#xf5;" horiz-adv-x="482" 
d="M244 -11q-76 0 -117 45t-41 124q0 139 53 225q63 104 190 104q69 0 113 -43q46 -46 46 -125q0 -133 -54 -223q-66 -107 -190 -107zM147 170q0 -61 27.5 -101t75.5 -40q92 0 140 102q37 78 37 180q0 136 -103 136q-85 0 -135 -93q-42 -80 -42 -184zM260 559v0h-35
q28 100 73 100q18 0 51.5 -23t47.5 -23q23 0 33 43h35q-25 -97 -76 -97q-18 0 -54.5 22t-43.5 22q-16 0 -31 -44z" />
    <glyph glyph-name="uacute" unicode="&#xfa;" horiz-adv-x="500" 
d="M360 0l23 117l-2 2q-49 -130 -169 -130q-56 0 -85 39q-22 31 -22 76q0 26 9 73l57 299h55l-58 -299q-8 -41 -8 -55q0 -37 20 -60t52 -23q67 0 122 86q42 65 55 132l43 219h55l-92 -476h-55zM314 559l64 119h74l-84 -119h-54z" />
    <glyph glyph-name="ugrave" unicode="&#xf9;" horiz-adv-x="500" 
d="M360 0l23 117l-2 2q-49 -130 -169 -130q-56 0 -85 39q-22 31 -22 76q0 26 9 73l57 299h55l-58 -299q-8 -41 -8 -55q0 -37 20 -60t52 -23q67 0 122 86q42 65 55 132l43 219h55l-92 -476h-55zM313 559l-37 119h73l17 -119h-53z" />
    <glyph glyph-name="ucircumflex" unicode="&#xfb;" horiz-adv-x="500" 
d="M360 0l23 117l-2 2q-49 -130 -169 -130q-56 0 -85 39q-22 31 -22 76q0 26 9 73l57 299h55l-58 -299q-8 -41 -8 -55q0 -37 20 -60t52 -23q67 0 122 86q42 65 55 132l43 219h55l-92 -476h-55zM240 559l109 119h58l61 -119h-52l-46 74l-78 -74h-52z" />
    <glyph glyph-name="udieresis" unicode="&#xfc;" horiz-adv-x="500" 
d="M360 0l23 117l-2 2q-49 -130 -169 -130q-56 0 -85 39q-22 31 -22 76q0 26 9 73l57 299h55l-58 -299q-8 -41 -8 -55q0 -37 20 -60t52 -23q67 0 122 86q42 65 55 132l43 219h55l-92 -476h-55zM228 570l16 78h74l-15 -78h-75zM392 570l15 78h74l-15 -78h-74z" />
    <glyph glyph-name="dagger" unicode="&#x2020;" horiz-adv-x="463" 
d="M202 0l75 388h-162l9 47h162l50 255h61l-49 -255h161l-10 -47h-161l-75 -388h-61z" />
    <glyph glyph-name="degree" unicode="&#xb0;" horiz-adv-x="333" 
d="M269 430q-44 0 -75.5 31.5t-31.5 75.5q0 45 31.5 76.5t75.5 31.5q45 0 76.5 -31.5t31.5 -76.5q0 -44 -31.5 -75.5t-76.5 -31.5zM203 537q0 -27 19.5 -46.5t46.5 -19.5q28 0 47.5 19.5t19.5 46.5q0 28 -19.5 47.5t-47.5 19.5q-27 0 -46.5 -19.5t-19.5 -47.5z" />
    <glyph glyph-name="cent" unicode="&#xa2;" horiz-adv-x="426" 
d="M184 -88l17 87q-114 31 -114 173q0 123 58 214.5t151 100.5l14 74h40l-14 -74q115 -12 115 -115q0 -13 -4 -35h-68q5 20 5 38q0 61 -55 76l-81 -419q32 -4 48 -4q42 0 88 11l-8 -39q-54 -12 -107 -12h-14q-10 1 -15 1l-16 -77h-40zM211 48l78 402q-65 -12 -105 -94
q-36 -75 -36 -171q0 -100 63 -137z" />
    <glyph glyph-name="sterling" unicode="&#xa3;" horiz-adv-x="407" 
d="M94 0l60 308h-63l8 43h63l24 124q18 93 45 130q45 61 150 61q133 0 133 -138h-68q0 42 -10 62q-18 35 -70 35q-57 0 -84 -41q-19 -30 -34 -109l-24 -124h101l-9 -43h-100l-50 -259h239l-9 -49h-302z" />
    <glyph glyph-name="section" unicode="&#xa7;" horiz-adv-x="426" 
d="M480 678l-14 -66q-55 43 -115 43q-45 0 -77 -21q-35 -23 -35 -60q0 -42 58 -72l107 -50q58 -35 58 -91q0 -70 -105 -138q39 -31 39 -76q0 -65 -59 -111.5t-143 -46.5q-69 0 -121 20l16 74q50 -48 111 -48q60 0 96 32q32 29 32 67q0 41 -58 69l-108 49q-58 35 -58 94
q0 48 40 92q8 8 58 50q-31 31 -31 76q0 64 59 103q51 34 121 34q66 0 129 -23zM165 359q0 -41 64 -75l99 -45q72 54 72 108q0 43 -68 77l-104 45q-63 -53 -63 -110z" />
    <glyph glyph-name="bullet" unicode="&#x2022;" 
d="M304 180q-74 0 -127.5 53t-53.5 127q0 75 53 128.5t128 53.5t128 -53.5t53 -128.5q0 -74 -53.5 -127t-127.5 -53z" />
    <glyph glyph-name="paragraph" unicode="&#xb6;" 
d="M328 -214v437q-83 10 -142 57q-79 62 -79 170q0 120 97 185q82 55 202 55h115v-37h-58v-867h-37v867h-61v-867h-37z" />
    <glyph glyph-name="germandbls" unicode="&#xdf;" horiz-adv-x="500" 
d="M83 0l94 486q18 93 46 137q51 78 154 78q67 0 105 -40t38 -101q0 -70 -40.5 -122t-98.5 -62v-2q116 -11 116 -136q0 -99 -57 -169q-65 -80 -174 -80q-27 0 -72 6l9 45q48 -11 66 -11q78 0 125 64q42 57 42 132q0 123 -116 123h-15l9 46h10q54 0 94.5 46t40.5 112
q0 55 -33 85q-27 24 -64 24q-68 0 -100 -67q-13 -28 -29 -108l-95 -486h-55z" />
    <glyph glyph-name="registered" unicode="&#xae;" horiz-adv-x="500" 
d="M341 231q-97 0 -166 69t-69 166t69 166t166 69t166 -69t69 -166t-68.5 -166t-166.5 -69zM141 466q0 -82 59 -141t141 -59q83 0 141.5 59t58.5 141q0 83 -58.5 141.5t-141.5 58.5q-82 0 -141 -58.5t-59 -141.5zM253 348v248h82q101 0 101 -80q0 -28 -15 -44q-6 -6 -27 -17
l45 -107h-50l-38 100h-54v-100h-44zM297 553v-65h54q38 0 38 32q0 33 -42 33h-50z" />
    <glyph glyph-name="copyright" unicode="&#xa9;" horiz-adv-x="500" 
d="M336 231q-98 0 -167 69t-69 166t69.5 166t166.5 69t166 -69t69 -166t-69 -166t-166 -69zM136 466q0 -82 59 -141t141 -59t140.5 59t58.5 141t-58.5 141t-140.5 59t-141 -58.5t-59 -141.5zM416 407l26 -32q-43 -39 -95 -39q-55 0 -95.5 38.5t-40.5 95.5t40.5 95.5
t95.5 38.5q52 0 95 -39l-26 -33q-34 31 -69 31t-63 -24q-30 -27 -30 -69q0 -43 30 -70q27 -23 60 -23q39 0 72 30z" />
    <glyph glyph-name="trademark" unicode="&#x2122;" horiz-adv-x="611" 
d="M222 400v248h-73v42h190v-42h-74v-248h-43zM372 400v290h78l60 -228h2l59 228h80v-290h-43v262h-2l-68 -262h-53l-68 262h-2v-262h-43z" />
    <glyph glyph-name="acute" unicode="&#xb4;" horiz-adv-x="320" 
d="M224 559l64 119h74l-84 -119h-54z" />
    <glyph glyph-name="dieresis" unicode="&#xa8;" horiz-adv-x="320" 
d="M138 570l16 78h74l-15 -78h-75zM302 570l15 78h74l-15 -78h-74z" />
    <glyph glyph-name="AE" unicode="&#xc6;" horiz-adv-x="759" 
d="M-2 0l526 690h316l-9 -46h-244l-40 -285h215l-8 -46h-214l-37 -267h259l-9 -46h-318l44 313h-181l-239 -313h-61zM518 606l-185 -247h152l35 245z" />
    <glyph glyph-name="Oslash" unicode="&#xd8;" horiz-adv-x="574" 
d="M84 -37l-33 20l76 103q-21 53 -21 128q0 178 70 316q87 171 244 171q78 0 125 -49l56 76l32 -21l-62 -85q33 -56 33 -148q0 -182 -69 -318q-86 -167 -244 -167q-97 0 -144 60zM524 559l-332 -449q32 -75 108 -75q115 0 182 155q54 127 54 282q0 45 -12 87zM181 159
l325 439q-34 57 -94 57q-115 0 -183 -157q-55 -127 -55 -273q0 -40 7 -66z" />
    <glyph glyph-name="plusminus" unicode="&#xb1;" horiz-adv-x="574" 
d="M309 0v212h-199v50h199v200h52v-200h205v-50h-205v-212h-52zM110 -91v50h456v-50h-456z" />
    <glyph glyph-name="yen" unicode="&#xa5;" 
d="M268 317l-14 41h-143l8 41h120l-105 291h68l112 -314l241 314h61l-223 -291h134l-8 -41h-157l-32 -41l-13 -69h187l-8 -41h-187l-41 -207h-62l41 207h-156l8 41h156z" />
    <glyph glyph-name="mu" unicode="&#xb5;" horiz-adv-x="500" 
d="M41 -203l131 679h55l-58 -299q-6 -31 -6 -52q0 -39 26 -62.5t67 -23.5q63 0 109 86q30 57 45 132l43 219h55l-68 -352q-9 -47 -9 -60q0 -25 37 -25l-7 -46q-12 -4 -24 -4q-32 0 -49 27q-12 20 -12 45q0 13 4 29l-2 2q-43 -103 -142 -103q-61 0 -94 45l-46 -237h-55z" />
    <glyph glyph-name="mu" unicode="&#x3bc;" horiz-adv-x="500" 
d="M41 -203l131 679h55l-58 -299q-6 -31 -6 -52q0 -39 26 -62.5t67 -23.5q63 0 109 86q30 57 45 132l43 219h55l-68 -352q-9 -47 -9 -60q0 -25 37 -25l-7 -46q-12 -4 -24 -4q-32 0 -49 27q-12 20 -12 45q0 13 4 29l-2 2q-43 -103 -142 -103q-61 0 -94 45l-46 -237h-55z" />
    <glyph glyph-name="ordfeminine" unicode="&#xaa;" horiz-adv-x="259" 
d="M228 287l6 30l-2 2q-35 -35 -78 -35q-25 0 -43 15t-18 43q0 54 62 80q45 19 103 19q9 36 9 57q0 37 -40 37q-27 0 -39 -15q-8 -9 -15 -35h-48q25 79 111 79q71 0 71 -59q0 -9 -5 -35l-35 -183h-39zM137 351q0 -30 34 -30q35 0 59 33q19 27 22 58q-115 0 -115 -61z" />
    <glyph glyph-name="ordmasculine" unicode="&#xba;" horiz-adv-x="278" 
d="M191 270q-41 0 -65 25.5t-24 70.5q0 73 35 127q40 60 109 60q89 0 89 -98q0 -72 -36 -125q-40 -60 -108 -60zM146 375q0 -76 51 -76q45 0 72 53q22 44 22 96q0 76 -51 76q-46 0 -72 -54q-22 -43 -22 -95z" />
    <glyph glyph-name="ae" unicode="&#xe6;" horiz-adv-x="704" 
d="M338 0l17 88l-2 2q-14 -37 -42 -63q-40 -38 -95 -38q-71 0 -109 51q-32 43 -32 113q0 122 50 219q60 115 160 115q96 0 125 -109h2l18 98h55l-8 -40l2 -2q55 53 123 53q136 0 136 -138q0 -38 -10 -110h-288q-4 -28 -4 -41q0 -77 42 -123t108 -46q35 0 88 11l-8 -41
q-66 -10 -94 -10q-113 0 -165 91l-15 -80h-54zM136 158q0 -129 86 -129q70 0 119 89q44 80 44 169q0 63 -20 106q-27 54 -80 54q-68 0 -112 -103q-37 -88 -37 -186zM445 280h230q7 63 7 83q0 87 -87 87q-72 0 -113 -61q-29 -44 -37 -109z" />
    <glyph glyph-name="oslash" unicode="&#xf8;" 
d="M52 -31l59 79q-30 39 -30 106q0 133 63 228q70 105 186 105q47 0 89 -25l46 62l29 -17l-47 -64q44 -47 44 -133q0 -119 -66 -215q-73 -106 -181 -106q-56 0 -108 36l-54 -72zM416 402l-253 -340q30 -33 81 -33q83 0 138 97q48 87 48 196q0 36 -14 80zM146 95l245 328
q-14 24 -65 24q-98 0 -148 -120q-36 -86 -36 -179q0 -19 4 -53z" />
    <glyph glyph-name="questiondown" unicode="&#xbf;" horiz-adv-x="389" 
d="M325 -52l-11 -69q-76 -26 -127 -26q-65 0 -105 30q-46 34 -46 98q0 66 77 146l127 119q36 38 48 107l4 22h52l-13 -67q-10 -54 -49 -98l-117 -113q-38 -37 -50 -54q-18 -27 -18 -60q0 -80 95 -80q67 0 133 45zM297 474l15 80h80l-15 -80h-80z" />
    <glyph glyph-name="exclamdown" unicode="&#xa1;" horiz-adv-x="259" 
d="M30 -136l109 511h51l-88 -511h-72zM145 474l15 80h80l-15 -80h-80z" />
    <glyph glyph-name="logicalnot" unicode="&#xac;" horiz-adv-x="574" 
d="M522 124v138h-406v50h456v-188h-50z" />
    <glyph glyph-name="florin" unicode="&#x192;" horiz-adv-x="333" 
d="M48 0l161 435h-79l15 41h80l7 20q34 97 68 135q54 59 155 59q25 0 60 -8l-19 -50q-32 18 -58 18q-63 0 -98 -43q-24 -29 -53 -109l-8 -22h133l-15 -41h-133l-161 -435h-55z" />
    <glyph glyph-name="guillemotleft" unicode="&#xab;" horiz-adv-x="315" 
d="M123 59l-48 182l120 186h47l-93 -186l22 -182h-48zM239 59l-47 182l119 186h47l-93 -186l22 -182h-48z" />
    <glyph glyph-name="guillemotright" unicode="&#xbb;" horiz-adv-x="315" 
d="M169 59l93 185l-22 183h48l48 -183l-120 -185h-47zM53 59l93 185l-22 183h48l47 -183l-119 -185h-47z" />
    <glyph glyph-name="ellipsis" unicode="&#x2026;" horiz-adv-x="685" 
d="M75 0l15 79h79l-15 -79h-79zM304 0l15 79h79l-15 -79h-79zM533 0l15 79h79l-15 -79h-79z" />
    <glyph glyph-name="Agrave" unicode="&#xc0;" horiz-adv-x="537" 
d="M9 0l358 690h71l90 -690h-61l-31 229h-257l-119 -229h-51zM384 626l-182 -351h228l-44 351h-2zM382 773l-37 119h73l17 -119h-53z" />
    <glyph glyph-name="Atilde" unicode="&#xc3;" horiz-adv-x="537" 
d="M9 0l358 690h71l90 -690h-61l-31 229h-257l-119 -229h-51zM384 626l-182 -351h228l-44 351h-2zM318 773v0h-35q28 100 73 100q18 0 51.5 -23t47.5 -23q23 0 33 43h35q-25 -97 -76 -97q-18 0 -54.5 22t-43.5 22q-16 0 -31 -44z" />
    <glyph glyph-name="Otilde" unicode="&#xd5;" horiz-adv-x="574" 
d="M291 -11q-185 0 -185 225q0 178 70 316q87 171 244 171q98 0 145 -69q39 -58 39 -158q0 -182 -69 -318q-86 -167 -244 -167zM174 225q0 -78 26 -128q32 -62 100 -62q115 0 182 155q54 127 54 282q0 73 -27 123q-33 60 -97 60q-115 0 -183 -157q-55 -127 -55 -273z
M336 773v0h-35q28 100 73 100q18 0 51.5 -23t47.5 -23q23 0 33 43h35q-25 -97 -76 -97q-18 0 -54.5 22t-43.5 22q-16 0 -31 -44z" />
    <glyph glyph-name="OE" unicode="&#x152;" horiz-adv-x="852" 
d="M178 225q0 -78 37 -132q40 -58 107 -58q114 0 180 155q53 127 53 282q0 74 -31 123q-37 60 -112 60q-119 0 -184 -157q-50 -122 -50 -273zM476 0l22 115l-2 2q-40 -128 -182 -128q-102 0 -154 61q-50 58 -50 164q0 188 61 316q81 171 249 171q65 0 109.5 -36t55.5 -96h2
l22 121h306l-9 -46h-244l-51 -260h232l-8 -46h-233l-56 -292h254l-10 -46h-314z" />
    <glyph glyph-name="oe" unicode="&#x153;" horiz-adv-x="759" 
d="M712 40l-8 -41q-66 -10 -99 -10q-135 0 -178 117q-75 -117 -183 -117q-76 0 -117 45t-41 124q0 139 53 225q63 104 190 104q119 0 152 -91q57 91 159 91q136 0 136 -138q0 -38 -10 -110h-288q-4 -28 -4 -41q0 -77 42 -123t108 -46q35 0 88 11zM147 170q0 -61 27.5 -101
t75.5 -40q95 0 143 102q35 76 35 180q0 136 -104 136q-93 0 -139 -93q-38 -75 -38 -184zM489 280h224q7 34 7 83q0 87 -87 87q-63 0 -105 -61q-32 -49 -39 -109z" />
    <glyph glyph-name="endash" unicode="&#x2013;" 
d="M99 215l11 56h368l-11 -56h-368z" />
    <glyph glyph-name="emdash" unicode="&#x2014;" horiz-adv-x="667" 
d="M99 215l11 56h553l-10 -56h-554z" />
    <glyph glyph-name="quotedblleft" unicode="&#x201c;" horiz-adv-x="315" 
d="M275 484l69 206h54l-51 -206h-72zM145 484l70 206h53l-51 -206h-72z" />
    <glyph glyph-name="quotedblright" unicode="&#x201d;" horiz-adv-x="315" 
d="M146 484l51 206h72l-70 -206h-53zM276 484l51 206h72l-70 -206h-53z" />
    <glyph glyph-name="quoteleft" unicode="&#x2018;" horiz-adv-x="185" 
d="M145 484l70 206h53l-51 -206h-72z" />
    <glyph glyph-name="quoteright" unicode="&#x2019;" horiz-adv-x="185" 
d="M146 484l51 206h72l-70 -206h-53z" />
    <glyph glyph-name="divide" unicode="&#xf7;" horiz-adv-x="574" 
d="M105 212v50h456v-50h-456zM293 0v79h80v-79h-80zM293 395v79h80v-79h-80z" />
    <glyph glyph-name="ydieresis" unicode="&#xff;" horiz-adv-x="426" 
d="M103 -184l101 189l-101 471h58l85 -394l212 394h50l-355 -660h-50zM191 570l16 78h74l-15 -78h-75zM355 570l15 78h74l-15 -78h-74z" />
    <glyph glyph-name="Ydieresis" unicode="&#x178;" 
d="M208 0l61 317l-135 373h62l113 -314l244 314h61l-282 -373l-62 -317h-62zM259 784l16 78h74l-15 -78h-75zM423 784l15 78h74l-15 -78h-74z" />
    <glyph glyph-name="currency" unicode="&#xa4;" horiz-adv-x="500" 
d="M522 115l-67 67q-73 -48 -139 -48q-48 0 -87 18q-16 7 -52 30l-67 -67l-31 31l67 67q-47 64 -47 136q0 74 47 140l-67 67l31 31l67 -66q68 47 139 47q69 0 139 -47l66 66l32 -31l-68 -67q47 -63 47 -140t-47 -136l67 -67zM145 349q0 -70 50.5 -119.5t120.5 -49.5
t120 49.5t50 119.5q0 71 -50 122t-120 51t-120.5 -51t-50.5 -122z" />
    <glyph glyph-name="guilsinglleft" unicode="&#x2039;" horiz-adv-x="204" 
d="M126 59l-48 182l119 186h48l-94 -186l22 -182h-47z" />
    <glyph glyph-name="guilsinglright" unicode="&#x203a;" horiz-adv-x="204" 
d="M54 59l93 185l-22 183h48l48 -183l-120 -185h-47z" />
    <glyph glyph-name="daggerdbl" unicode="&#x2021;" 
d="M213 0l64 334h-164l9 47h165l13 68h-164l8 47h165l38 194h61l-38 -194h160l-9 -47h-160l-13 -68h160l-9 -47h-161l-64 -334h-61z" />
    <glyph glyph-name="periodcentered" unicode="&#xb7;" horiz-adv-x="204" 
d="M113 275l16 85h85l-16 -85h-85z" />
    <glyph glyph-name="periodcentered" unicode="&#x2219;" horiz-adv-x="204" 
d="M113 275l16 85h85l-16 -85h-85z" />
    <glyph glyph-name="quotesinglbase" unicode="&#x201a;" horiz-adv-x="185" 
d="M56 -123l51 206h72l-70 -206h-53z" />
    <glyph glyph-name="quotedblbase" unicode="&#x201e;" horiz-adv-x="315" 
d="M28 -123l51 206h72l-70 -206h-53zM157 -123l51 206h72l-69 -206h-54z" />
    <glyph glyph-name="perthousand" unicode="&#x2030;" horiz-adv-x="1111" 
d="M206 199q-54 0 -82.5 38t-28.5 98q0 104 35 188q51 122 159 122q109 0 109 -132q0 -115 -36 -198q-50 -116 -156 -116zM148 345q0 -106 65 -106q69 0 106 111q26 78 26 151q0 104 -65 104q-68 0 -106 -116q-26 -80 -26 -144zM612 -11q-54 0 -84 39q-27 36 -27 97
q0 105 35 188q50 122 158 122q53 0 81.5 -35t28.5 -97q0 -115 -36 -198q-50 -116 -156 -116zM554 135q0 -106 64 -106q69 0 107 111q26 78 26 151q0 104 -65 104q-68 0 -106 -116q-26 -80 -26 -144zM944 -11q-54 0 -82.5 38t-28.5 98q0 104 35 188q51 122 159 122
q109 0 109 -132q0 -115 -36 -198q-50 -116 -156 -116zM886 135q0 -106 65 -106q69 0 106 111q26 78 26 151q0 104 -65 104q-68 0 -106 -116q-26 -80 -26 -144zM267 0l321 634h47l-320 -634h-48z" />
    <glyph glyph-name="Acircumflex" unicode="&#xc2;" horiz-adv-x="537" 
d="M9 0l358 690h71l90 -690h-61l-31 229h-257l-119 -229h-51zM384 626l-182 -351h228l-44 351h-2zM289 773l109 119h58l61 -119h-52l-46 74l-78 -74h-52z" />
    <glyph glyph-name="Ecircumflex" unicode="&#xca;" horiz-adv-x="444" 
d="M88 0l134 690h306l-9 -46h-244l-51 -260h232l-9 -46h-232l-56 -292h253l-9 -46h-315zM267 773l109 119h58l61 -119h-52l-46 74l-78 -74h-52z" />
    <glyph glyph-name="Aacute" unicode="&#xc1;" horiz-adv-x="537" 
d="M9 0l358 690h71l90 -690h-61l-31 229h-257l-119 -229h-51zM384 626l-182 -351h228l-44 351h-2zM373 773l64 119h74l-84 -119h-54z" />
    <glyph glyph-name="Edieresis" unicode="&#xcb;" horiz-adv-x="444" 
d="M88 0l134 690h306l-9 -46h-244l-51 -260h232l-9 -46h-232l-56 -292h253l-9 -46h-315zM265 784l16 78h74l-15 -78h-75zM429 784l15 78h74l-15 -78h-74z" />
    <glyph glyph-name="Egrave" unicode="&#xc8;" horiz-adv-x="444" 
d="M88 0l134 690h306l-9 -46h-244l-51 -260h232l-9 -46h-232l-56 -292h253l-9 -46h-315zM335 773l-37 119h73l17 -119h-53z" />
    <glyph glyph-name="Iacute" unicode="&#xcd;" horiz-adv-x="241" 
d="M90 0l134 690h62l-134 -690h-62zM225 773l64 119h74l-84 -119h-54z" />
    <glyph glyph-name="Icircumflex" unicode="&#xce;" horiz-adv-x="241" 
d="M90 0l134 690h62l-134 -690h-62zM151 773l109 119h58l61 -119h-52l-46 74l-78 -74h-52z" />
    <glyph glyph-name="Idieresis" unicode="&#xcf;" horiz-adv-x="241" 
d="M90 0l134 690h62l-134 -690h-62zM149 784l16 78h74l-15 -78h-75zM313 784l15 78h74l-15 -78h-74z" />
    <glyph glyph-name="Igrave" unicode="&#xcc;" horiz-adv-x="241" 
d="M90 0l134 690h62l-134 -690h-62zM234 773l-37 119h73l17 -119h-53z" />
    <glyph glyph-name="Oacute" unicode="&#xd3;" horiz-adv-x="574" 
d="M291 -11q-185 0 -185 225q0 178 70 316q87 171 244 171q98 0 145 -69q39 -58 39 -158q0 -182 -69 -318q-86 -167 -244 -167zM174 225q0 -78 26 -128q32 -62 100 -62q115 0 182 155q54 127 54 282q0 73 -27 123q-33 60 -97 60q-115 0 -183 -157q-55 -127 -55 -273z
M366 773l64 119h74l-84 -119h-54z" />
    <glyph glyph-name="Ocircumflex" unicode="&#xd4;" horiz-adv-x="574" 
d="M291 -11q-185 0 -185 225q0 178 70 316q87 171 244 171q98 0 145 -69q39 -58 39 -158q0 -182 -69 -318q-86 -167 -244 -167zM174 225q0 -78 26 -128q32 -62 100 -62q115 0 182 155q54 127 54 282q0 73 -27 123q-33 60 -97 60q-115 0 -183 -157q-55 -127 -55 -273z
M302 773l109 119h58l61 -119h-52l-46 74l-78 -74h-52z" />
    <glyph glyph-name="Ograve" unicode="&#xd2;" horiz-adv-x="574" 
d="M291 -11q-185 0 -185 225q0 178 70 316q87 171 244 171q98 0 145 -69q39 -58 39 -158q0 -182 -69 -318q-86 -167 -244 -167zM174 225q0 -78 26 -128q32 -62 100 -62q115 0 182 155q54 127 54 282q0 73 -27 123q-33 60 -97 60q-115 0 -183 -157q-55 -127 -55 -273z
M380 773l-37 119h73l17 -119h-53z" />
    <glyph glyph-name="Uacute" unicode="&#xda;" horiz-adv-x="593" 
d="M645 690l-84 -434q-24 -126 -61 -178q-63 -89 -203 -89q-77 0 -124 39q-53 43 -53 125q0 36 13 103l84 434h62l-81 -421q-13 -68 -13 -109q0 -52 30 -86q34 -39 97 -39q96 0 140 71q26 42 47 150l84 434h62zM401 773l64 119h74l-84 -119h-54z" />
    <glyph glyph-name="Ucircumflex" unicode="&#xdb;" horiz-adv-x="593" 
d="M645 690l-84 -434q-24 -126 -61 -178q-63 -89 -203 -89q-77 0 -124 39q-53 43 -53 125q0 36 13 103l84 434h62l-81 -421q-13 -68 -13 -109q0 -52 30 -86q34 -39 97 -39q96 0 140 71q26 42 47 150l84 434h62zM317 773l109 119h58l61 -119h-52l-46 74l-78 -74h-52z" />
    <glyph glyph-name="Ugrave" unicode="&#xd9;" horiz-adv-x="593" 
d="M645 690l-84 -434q-24 -126 -61 -178q-63 -89 -203 -89q-77 0 -124 39q-53 43 -53 125q0 36 13 103l84 434h62l-81 -421q-13 -68 -13 -109q0 -52 30 -86q34 -39 97 -39q96 0 140 71q26 42 47 150l84 434h62zM405 773l-37 119h73l17 -119h-53z" />
    <glyph glyph-name="circumflex" unicode="&#x2c6;" horiz-adv-x="320" 
d="M150 559l109 119h58l61 -119h-52l-46 74l-78 -74h-52z" />
    <glyph glyph-name="tilde" unicode="&#x2dc;" horiz-adv-x="320" 
d="M179 559v0h-35q28 100 73 100q18 0 51.5 -23t47.5 -23q23 0 33 43h35q-25 -97 -76 -97q-18 0 -54.5 22t-43.5 22q-16 0 -31 -44z" />
    <glyph glyph-name="macron" unicode="&#xaf;" horiz-adv-x="320" 
d="M132 559l11 54h231l-11 -54h-231z" />
    <glyph glyph-name="macron" unicode="&#x2c9;" horiz-adv-x="320" 
d="M132 559l11 54h231l-11 -54h-231z" />
    <glyph glyph-name="cedilla" unicode="&#xb8;" horiz-adv-x="320" 
d="M184 16l-29 -76q80 -3 80 -57q0 -39 -31 -68t-78 -29q-31 0 -56 11l8 42q24 -20 50 -20q21 0 39 15.5t18 40.5q0 36 -75 36l38 105h36z" />
    <glyph glyph-name="Scaron" unicode="&#x160;" horiz-adv-x="463" 
d="M517 684l-14 -69q-85 40 -152 40t-106 -31q-42 -33 -42 -94t68 -107l125 -82q68 -57 68 -142q0 -90 -72.5 -150t-191.5 -60q-77 0 -155 18l15 70q84 -38 157 -38q77 0 128 42t51 113q0 60 -68 106l-125 78q-68 53 -68 129q0 95 75 148q65 46 167 46q74 0 140 -17z
M328 773l-61 119h52l47 -74l78 74h52l-109 -119h-59z" />
    <glyph glyph-name="scaron" unicode="&#x161;" horiz-adv-x="370" 
d="M404 470l-13 -59q-61 36 -122 36q-46 0 -73 -22t-27 -58t53 -65l97 -53q53 -39 53 -101q0 -67 -49 -111q-53 -48 -147 -48q-70 0 -136 22l12 61q69 -43 129 -43q57 0 93.5 26t36.5 75q0 44 -53 75l-97 53q-53 36 -53 94q0 64 47.5 99.5t134.5 35.5q42 0 114 -17zM246 559
l-61 119h52l47 -74l78 74h52l-109 -119h-59z" />
    <glyph glyph-name="brokenbar" unicode="&#xa6;" horiz-adv-x="241" 
d="M151 -136v359h52v-359h-52zM151 402v359h52v-359h-52z" />
    <glyph glyph-name="Eth" unicode="&#xd0;" horiz-adv-x="574" 
d="M88 0l66 341h-90l9 46h91l58 303h90q140 0 204 -38q86 -52 86 -191q0 -206 -92 -332q-94 -129 -251 -129h-171zM216 341l-58 -295h66q151 0 233 119q77 110 77 296q0 115 -65 155q-46 28 -158 28h-36l-50 -257h157l-10 -46h-156z" />
    <glyph glyph-name="eth" unicode="&#xf0;" 
d="M463 605l-64 -26q91 -106 91 -253q0 -136 -55 -227q-66 -110 -191 -110q-76 0 -117 45t-41 124q0 139 53 225q63 104 190 104q49 0 87 -41l2 2q-39 78 -75 108l-88 -35l-9 34l66 26q-34 24 -43 29q-26 16 -49 21v3h111q23 -17 37 -30l86 35zM147 170q0 -61 27.5 -101
t75.5 -40q94 0 142 102q37 78 37 180q0 136 -105 136q-93 0 -139 -93q-38 -75 -38 -184z" />
    <glyph glyph-name="Yacute" unicode="&#xdd;" 
d="M208 0l61 317l-135 373h62l113 -314l244 314h61l-282 -373l-62 -317h-62zM325 773l64 119h74l-84 -119h-54z" />
    <glyph glyph-name="yacute" unicode="&#xfd;" horiz-adv-x="426" 
d="M103 -184l101 189l-101 471h58l85 -394l212 394h50l-355 -660h-50zM277 559l64 119h74l-84 -119h-54z" />
    <glyph glyph-name="Thorn" unicode="&#xde;" horiz-adv-x="556" 
d="M86 0l134 690h62l-28 -142h126q94 0 135 -20q71 -34 71 -138q0 -218 -256 -218h-149l-33 -172h-62zM245 502l-55 -284h129q88 0 128 21q71 36 71 145q0 75 -40 101q-28 17 -98 17h-135z" />
    <glyph glyph-name="thorn" unicode="&#xfe;" horiz-adv-x="463" 
d="M26 -214l176 904h55l-55 -279l2 -2q13 28 41 49q40 29 95 29q68 0 104 -50q32 -45 32 -114q0 -122 -52 -218q-62 -116 -169 -116q-54 0 -88 27q-24 18 -32 42h-2l-52 -272h-55zM159 153q0 -124 97 -124q72 0 119 103q40 88 40 186q0 129 -86 129q-75 0 -124 -95
q-46 -88 -46 -199z" />
    <glyph glyph-name="minus" unicode="&#xad;" horiz-adv-x="574" 
d="M106 212v50h455v-50h-455z" />
    <glyph glyph-name="minus" unicode="&#x2212;" horiz-adv-x="574" 
d="M106 212v50h455v-50h-455z" />
    <glyph glyph-name="multiply" unicode="&#xd7;" horiz-adv-x="574" 
d="M144 -11l-35 38l190 193l-189 194l42 44l187 -194l187 194l36 -37l-188 -195l194 -195l-42 -42l-192 196z" />
    <glyph glyph-name="onesuperior" unicode="&#xb9;" horiz-adv-x="333" 
d="M203 205l71 368l-86 -54l11 56l97 59h45l-83 -429h-55z" />
    <glyph glyph-name="twosuperior" unicode="&#xb2;" horiz-adv-x="333" 
d="M80 205l9 43q73 59 135 124q108 113 108 175q0 58 -55 58q-56 0 -73 -72h-61q28 112 141 112q44 0 72 -22q33 -26 33 -73q0 -118 -231 -297v-2h180l-9 -46h-249z" />
    <glyph glyph-name="threesuperior" unicode="&#xb3;" horiz-adv-x="333" 
d="M200 545h-61q28 100 135 100q106 0 106 -97q0 -51 -31 -85q-23 -26 -50 -32q47 -26 47 -81q0 -73 -46 -114q-42 -37 -107 -37q-109 0 -109 102h61q0 -28 7 -41q11 -21 46 -21q42 0 67 33q24 30 24 74q0 63 -76 63l9 43h16q38 0 61.5 26t23.5 66q0 25 -14 43t-39 18
q-34 0 -51 -20q-8 -9 -19 -40z" />
    <glyph glyph-name="onehalf" unicode="&#xbd;" horiz-adv-x="778" 
d="M221 0l321 634h47l-319 -634h-49zM157 202l72 371l-86 -54l11 56l97 59h44l-84 -432h-54zM440 0l8 43q69 54 136 124q108 113 108 175q0 59 -55 59t-73 -72h-61q28 112 141 112q44 0 72 -23q33 -26 33 -72q0 -116 -231 -298v-2h180l-9 -46h-249z" />
    <glyph glyph-name="onequarter" unicode="&#xbc;" horiz-adv-x="778" 
d="M597 0l24 124h-166l8 46l217 263h55l-51 -263h75l-8 -46h-76l-23 -124h-55zM661 345l-140 -175h109l33 173zM221 0l321 634h47l-319 -634h-49zM157 202l72 371l-86 -54l11 56l97 59h44l-84 -432h-54z" />
    <glyph glyph-name="threequarters" unicode="&#xbe;" horiz-adv-x="778" 
d="M643 0l23 124h-165l8 46l217 263h54l-50 -263h75l-9 -46h-75l-24 -124h-54zM707 345l-140 -175h108l34 173zM267 0l321 634h47l-320 -634h-48zM200 545h-61q28 100 135 100q106 0 106 -97q0 -51 -31 -85q-23 -26 -50 -32q48 -26 48 -80q0 -73 -46 -114q-42 -37 -107 -37
q-109 0 -109 102h61q0 -28 7 -41q11 -21 46 -21q42 0 67 33q24 30 24 74q0 62 -77 62l9 43h16q38 0 61.5 26t23.5 66q0 25 -14 43t-39 18q-34 0 -51 -20q-8 -9 -19 -40z" />
    <glyph glyph-name="glyph217" horiz-adv-x="241" 
 />
    <glyph glyph-name="fraction" unicode="&#x2044;" horiz-adv-x="251" 
d="M8 0l321 634h47l-319 -634h-49z" />
    <glyph glyph-name="fi" unicode="&#xf001;" horiz-adv-x="519" 
d="M119 0l85 435h-81l8 41h81l15 79q26 135 164 135q25 0 75 -10l-10 -47q-36 17 -83 17q-48 0 -71 -39q-15 -24 -25 -80l-10 -55h133l-8 -41h-133l-85 -435h-55zM486 609l16 81h75l-16 -81h-75zM379 0l92 476h55l-93 -476h-54z" />
    <glyph glyph-name="fl" unicode="&#xf002;" horiz-adv-x="519" 
d="M119 0l85 435h-81l8 41h81l15 79q26 135 164 135q25 0 75 -10l-10 -47q-36 17 -83 17q-48 0 -71 -39q-15 -24 -25 -80l-10 -55h133l-8 -41h-133l-85 -435h-55zM380 0l134 690h55l-134 -690h-55z" />
    <glyph glyph-name="breve" unicode="&#x2d8;" horiz-adv-x="320" 
d="M341 678h34q-5 -37 -34 -71q-39 -48 -101 -48q-45 0 -70 30q-21 24 -21 59q0 15 3 30h34v-6q-1 -5 -1 -7q0 -52 65 -52q73 0 91 65z" />
    <glyph glyph-name="dotaccent" unicode="&#x2d9;" horiz-adv-x="320" 
d="M222 570l15 78h75l-16 -78h-74z" />
    <glyph glyph-name="ring" unicode="&#x2da;" horiz-adv-x="320" 
d="M267 559q-33 0 -56 23.5t-23 55.5q0 33 23 56.5t56 23.5q32 0 55.5 -23.5t23.5 -56.5q0 -32 -23.5 -55.5t-55.5 -23.5zM223 638q0 -19 12.5 -31.5t31.5 -12.5q18 0 31 12.5t13 31.5t-12.5 32t-31.5 13t-31.5 -13.5t-12.5 -31.5z" />
    <glyph glyph-name="hungarumlaut" unicode="&#x2dd;" horiz-adv-x="320" 
d="M224 559l64 119h74l-84 -119h-54zM338 559l64 119h74l-84 -119h-54z" />
    <glyph glyph-name="ogonek" unicode="&#x2db;" horiz-adv-x="320" 
d="M267 -158l-9 -42q-27 -8 -56 -8q-81 0 -81 66t114 152h36q-99 -86 -99 -140q0 -41 42 -41q27 0 53 13z" />
    <glyph glyph-name="caron" unicode="&#x2c7;" horiz-adv-x="320" 
d="M211 559l-61 119h52l47 -74l78 74h52l-109 -119h-59z" />
    <glyph glyph-name="Lslash" unicode="&#x141;" horiz-adv-x="389" 
d="M88 0l54 278l-88 -64l11 57l88 64l69 355h62l-59 -301l161 119l-11 -56l-161 -120l-56 -286h245l-9 -46h-306z" />
    <glyph glyph-name="dotlessi" unicode="&#x131;" horiz-adv-x="222" 
d="M84 0l92 476h55l-92 -476h-55z" />
    <glyph glyph-name="lslash" unicode="&#x142;" horiz-adv-x="222" 
d="M83 0l63 325l-98 -73l10 54l99 73l60 311h55l-51 -262l98 71l-10 -53l-98 -71l-73 -375h-55z" />
    <glyph glyph-name="zcaron" unicode="&#x17e;" horiz-adv-x="389" 
d="M24 0l9 46l336 384h-242l9 46h318l-5 -27l-346 -403h276l-8 -46h-347zM246 559l-61 119h52l47 -74l78 74h52l-109 -119h-59z" />
    <glyph glyph-name="Zcaron" unicode="&#x17d;" 
d="M27 0l8 46l456 598h-321l8 46h398l-8 -46l-456 -598h366l-8 -46h-443zM312 773l-61 119h52l47 -74l78 74h52l-109 -119h-59z" />
    </font>
</defs>
</svg>
